<?xml version="1.0" standalone="no"?>
<!DOCTYPE svg PUBLIC "-//W3C//DTD SVG 1.1//EN" "http://www.w3.org/Graphics/SVG/1.1/DTD/svg11.dtd" >
<svg>
<metadata>
Created by FontForge 20090914 at Tue Jun  2 12:21:59 2020
 By www-data
&#194;&#169; 2015-2017 Apple Inc. All rights reserved.
</metadata>
<defs>
<font id="SFProText-Bold" horiz-adv-x="1800" >
  <font-face 
    font-family="SF Pro Text"
    font-weight="700"
    font-stretch="normal"
    units-per-em="2048"
    panose-1="0 0 8 0 0 0 0 0 0 0"
    ascent="1638"
    descent="-410"
    x-height="1103"
    cap-height="1443"
    bbox="-611 -570 2789 2229"
    underline-thickness="197"
    underline-position="-375"
    unicode-range="U+0020-U+1F189"
  />
<missing-glyph horiz-adv-x="2048" 
d="M100 -494v198h1848v-198h-1848zM100 -45v198h1848v-198h-1848zM100 404v199h1848v-199h-1848zM100 853v199h1848v-199h-1848zM100 1303v198h1848v-198h-1848zM100 1752v198h1848v-198h-1848z" />
    <glyph glyph-name="uni2460" unicode="&#x31;&#x20dd;" 
d="M1035 382h-201v510h-10l-157 -106v177l167 111h201v-692zM900 125c108.667 0 208.334 26.667 299.001 80s162 125.5 214 216.5s78 190.5 78 298.5s-26 207.5 -78 298.5s-123.333 163.167 -214 216.5s-190.334 80 -299.001 80s-208.334 -26.667 -299.001 -80
s-161.834 -125.5 -213.501 -216.5s-77.5 -190.5 -77.5 -298.5s25.833 -207.5 77.5 -298.5s122.834 -163.167 213.501 -216.5s190.334 -80 299.001 -80zM900 -55c-106 0 -206.833 20.333 -302.5 61s-178 95.5 -247 164.5s-123.833 151.333 -164.5 247s-61 196.5 -61 302.5
s20.333 207 61 303s95.5 178.5 164.5 247.5s151.333 123.833 247 164.5s196.5 61 302.5 61s206.833 -20.333 302.5 -61s178 -95.5 247 -164.5s123.833 -151.5 164.5 -247.5s61 -197 61 -303s-20.333 -206.833 -61 -302.5s-95.5 -178 -164.5 -247
s-151.333 -123.833 -247 -164.5s-196.5 -61 -302.5 -61z" />
    <glyph glyph-name="uni2461" unicode="&#x32;&#x20dd;" 
d="M816 845l-186 0.00195312v3c0 69.333 24.167 126.166 72.5 170.499s114.833 66.5 199.5 66.5c78.667 0 142.167 -19.167 190.5 -57.5s72.5 -87.833 72.5 -148.5c0 -36.667 -10.5 -71.167 -31.5 -103.5s-54.167 -69.5 -99.5 -111.5l-121 -114v-8h263v-161h-534v127
l249 235c27.333 26 47 47.5 59 64.5s18 34.833 18 53.5c0 19.333 -7 35 -21 47s-31.667 18 -53 18c-24.667 0 -44 -7.33301 -58 -22s-20.667 -33.334 -20 -56.001v-3zM900 125.002c108.667 0 208.334 26.667 299.001 80s162 125.5 214 216.5s78 190.5 78 298.5
s-26 207.5 -78 298.5s-123.333 163.167 -214 216.5s-190.334 80 -299.001 80s-208.334 -26.667 -299.001 -80s-161.834 -125.5 -213.501 -216.5s-77.5 -190.5 -77.5 -298.5s25.833 -207.5 77.5 -298.5s122.834 -163.167 213.501 -216.5s190.334 -80 299.001 -80z
M900 -54.998c-106 0 -206.833 20.333 -302.5 61s-178 95.5 -247 164.5s-123.833 151.333 -164.5 247s-61 196.5 -61 302.5s20.333 207 61 303s95.5 178.5 164.5 247.5s151.333 123.833 247 164.5s196.5 61 302.5 61s206.833 -20.333 302.5 -61s178 -95.5 247 -164.5
s123.833 -151.5 164.5 -247.5s61 -197 61 -303s-20.333 -206.833 -61 -302.5s-95.5 -178 -164.5 -247s-151.333 -123.833 -247 -164.5s-196.5 -61 -302.5 -61z" />
    <glyph glyph-name="uni2462" unicode="&#x33;&#x20dd;" 
d="M825 659l-0.00488281 148.994h70c24.667 0 44.834 6.33301 60.501 19s23.5 29.334 23.5 50.001c0 18.667 -7.83301 33.667 -23.5 45s-35.834 17 -60.501 17c-26.667 0 -48.167 -7.16699 -64.5 -21.5s-25.166 -32.166 -26.499 -53.499h-183
c2.66699 69.333 27.834 123.5 75.501 162.5s114.834 58.5 201.501 58.5c82 0 147.5 -17 196.5 -51s74.167 -78.667 75.5 -134c0.666992 -38 -12.833 -71.167 -40.5 -99.5s-58.167 -44.833 -91.5 -49.5v-10c40 -3.33301 74.833 -19.666 104.5 -48.999
s44.834 -67.333 45.501 -114c0.666992 -63.333 -26 -113.666 -80 -150.999s-124.667 -56 -212 -56c-86 0 -154.333 20.5 -205 61.5s-76.667 94.5 -78 160.5h183c1.33301 -21.333 11 -38.666 29 -51.999s41.333 -20.333 70 -21c30 0 54 6.5 72 19.5s27 29.833 27 50.5
c-0.666992 20.667 -9.66699 37.334 -27 50.001s-40.666 19 -69.999 19h-72zM899.995 124.994c108.667 0 208.334 26.667 299.001 80s162 125.5 214 216.5s78 190.5 78 298.5s-26 207.5 -78 298.5s-123.333 163.167 -214 216.5s-190.334 80 -299.001 80
s-208.334 -26.667 -299.001 -80s-161.834 -125.5 -213.501 -216.5s-77.5 -190.5 -77.5 -298.5s25.833 -207.5 77.5 -298.5s122.834 -163.167 213.501 -216.5s190.334 -80 299.001 -80zM899.995 -55.0059c-106 0 -206.833 20.333 -302.5 61s-178 95.5 -247 164.5
s-123.833 151.333 -164.5 247s-61 196.5 -61 302.5s20.333 207 61 303s95.5 178.5 164.5 247.5s151.333 123.833 247 164.5s196.5 61 302.5 61s206.833 -20.333 302.5 -61s178 -95.5 247 -164.5s123.833 -151.5 164.5 -247.5s61 -197 61 -303s-20.333 -206.833 -61 -302.5
s-95.5 -178 -164.5 -247s-151.333 -123.833 -247 -164.5s-196.5 -61 -302.5 -61z" />
    <glyph glyph-name="uni2463" unicode="&#x34;&#x20dd;" 
d="M824 1074l271 -0.000976562v-428h95v-152h-95v-112h-168v112h-346v155c50 96.667 131 238.334 243 425.001zM753 645.999h173.999v287h-14c-77.333 -132.667 -130.666 -227.667 -159.999 -285v-2zM899.999 124.999c108.667 0 208.334 26.667 299.001 80
s162 125.5 214 216.5s78 190.5 78 298.5s-26 207.5 -78 298.5s-123.333 163.167 -214 216.5s-190.334 80 -299.001 80s-208.334 -26.667 -299.001 -80s-161.834 -125.5 -213.501 -216.5s-77.5 -190.5 -77.5 -298.5s25.833 -207.5 77.5 -298.5
s122.834 -163.167 213.501 -216.5s190.334 -80 299.001 -80zM899.999 -55.001c-106 0 -206.833 20.333 -302.5 61s-178 95.5 -247 164.5s-123.833 151.333 -164.5 247s-61 196.5 -61 302.5s20.333 207 61 303s95.5 178.5 164.5 247.5s151.333 123.833 247 164.5
s196.5 61 302.5 61s206.833 -20.333 302.5 -61s178 -95.5 247 -164.5s123.833 -151.5 164.5 -247.5s61 -197 61 -303s-20.333 -206.833 -61 -302.5s-95.5 -178 -164.5 -247s-151.333 -123.833 -247 -164.5s-196.5 -61 -302.5 -61z" />
    <glyph glyph-name="uni2464" unicode="&#x35;&#x20dd;" 
d="M631 591h185c4 -20 15 -35.5 33 -46.5s38.667 -16.5 62 -16.5c26.667 0 49.5 8.83301 68.5 26.5s28.5 40.5 28.5 68.5c0 26 -9.5 47.5 -28.5 64.5s-42.167 25.5 -69.5 25.5c-20.667 0 -38.667 -4.5 -54 -13.5s-26.666 -20.167 -33.999 -33.5h-177l27 414h481v-147h-330
l-12 -147h9c10 18 28.5 33.333 55.5 46s58.5 19 94.5 19c67.333 0 122.333 -20 165 -60s64 -94 64 -162c0 -77.333 -26.167 -138.833 -78.5 -184.5s-122.833 -68.5 -211.5 -68.5c-80.667 0 -146.834 20.167 -198.501 60.5s-78.167 91.833 -79.5 154.5zM900 125
c108.667 0 208.334 26.667 299.001 80s162 125.5 214 216.5s78 190.5 78 298.5s-26 207.5 -78 298.5s-123.333 163.167 -214 216.5s-190.334 80 -299.001 80s-208.334 -26.667 -299.001 -80s-161.834 -125.5 -213.501 -216.5s-77.5 -190.5 -77.5 -298.5
s25.833 -207.5 77.5 -298.5s122.834 -163.167 213.501 -216.5s190.334 -80 299.001 -80zM900 -55c-106 0 -206.833 20.333 -302.5 61s-178 95.5 -247 164.5s-123.833 151.333 -164.5 247s-61 196.5 -61 302.5s20.333 207 61 303s95.5 178.5 164.5 247.5
s151.333 123.833 247 164.5s196.5 61 302.5 61s206.833 -20.333 302.5 -61s178 -95.5 247 -164.5s123.833 -151.5 164.5 -247.5s61 -197 61 -303s-20.333 -206.833 -61 -302.5s-95.5 -178 -164.5 -247s-151.333 -123.833 -247 -164.5s-196.5 -61 -302.5 -61z" />
    <glyph glyph-name="uni2465" unicode="&#x36;&#x20dd;" 
d="M1190 631c0 -78 -26.333 -140.998 -79 -188.998s-122 -72 -208 -72c-87.333 0 -158.333 24.5 -213 73.5s-82 112.833 -82 191.5c0 46 7.5 89.667 22.5 131s39.5 86.666 73.5 135.999c19.333 30 64 87.667 134 173h232l-99.5 -117.5
c-41 -49.667 -67.833 -84.167 -80.5 -103.5c-14.667 -22 -23.667 -36.333 -27 -43h9c32 22 68.667 33 110 33c59.333 0 108.833 -20.333 148.5 -61s59.5 -91.334 59.5 -152.001zM806 620.002c0 -26.667 9 -48.5 27 -65.5s41 -25.5 69 -25.5s51 8.5 69 25.5
s27 38.833 27 65.5c0 26 -9 47.667 -27 65s-41 26 -69 26s-51 -8.66699 -69 -26s-27 -39 -27 -65zM900 125.002c108.667 0 208.334 26.667 299.001 80s162 125.5 214 216.5s78 190.5 78 298.5s-26 207.5 -78 298.5s-123.333 163.167 -214 216.5s-190.334 80 -299.001 80
s-208.334 -26.667 -299.001 -80s-161.834 -125.5 -213.501 -216.5s-77.5 -190.5 -77.5 -298.5s25.833 -207.5 77.5 -298.5s122.834 -163.167 213.501 -216.5s190.334 -80 299.001 -80zM900 -54.998c-106 0 -206.833 20.333 -302.5 61s-178 95.5 -247 164.5
s-123.833 151.333 -164.5 247s-61 196.5 -61 302.5s20.333 207 61 303s95.5 178.5 164.5 247.5s151.333 123.833 247 164.5s196.5 61 302.5 61s206.833 -20.333 302.5 -61s178 -95.5 247 -164.5s123.833 -151.5 164.5 -247.5s61 -197 61 -303s-20.333 -206.833 -61 -302.5
s-95.5 -178 -164.5 -247s-151.333 -123.833 -247 -164.5s-196.5 -61 -302.5 -61z" />
    <glyph glyph-name="uni2466" unicode="&#x37;&#x20dd;" 
d="M638 1070h543v-162l-274 -531h-213l284 525v7h-340v161zM900 125c108.667 0 208.334 26.667 299.001 80s162 125.5 214 216.5s78 190.5 78 298.5s-26 207.5 -78 298.5s-123.333 163.167 -214 216.5s-190.334 80 -299.001 80s-208.334 -26.667 -299.001 -80
s-161.834 -125.5 -213.501 -216.5s-77.5 -190.5 -77.5 -298.5s25.833 -207.5 77.5 -298.5s122.834 -163.167 213.501 -216.5s190.334 -80 299.001 -80zM900 -55c-106 0 -206.833 20.333 -302.5 61s-178 95.5 -247 164.5s-123.833 151.333 -164.5 247s-61 196.5 -61 302.5
s20.333 207 61 303s95.5 178.5 164.5 247.5s151.333 123.833 247 164.5s196.5 61 302.5 61s206.833 -20.333 302.5 -61s178 -95.5 247 -164.5s123.833 -151.5 164.5 -247.5s61 -197 61 -303s-20.333 -206.833 -61 -302.5s-95.5 -178 -164.5 -247
s-151.333 -123.833 -247 -164.5s-196.5 -61 -302.5 -61z" />
    <glyph glyph-name="uni2467" unicode="&#x38;&#x20dd;" 
d="M900 506c29.333 0 53.667 8.16699 73 24.5s29 36.833 29 61.5c0 25.333 -9.5 46.333 -28.5 63s-43.5 25 -73.5 25c-29.333 0 -53.666 -8.33301 -72.999 -25s-29 -37.667 -29 -63c0 -24.667 9.66699 -45.167 29 -61.5s43.666 -24.5 72.999 -24.5zM900.001 803
c24.667 0 44.833 7 60.5 21s23.5 31.667 23.5 53c0 20.667 -8 38 -24 52s-36 21 -60 21s-44 -7 -60 -21s-24 -31.333 -24 -52c0 -21.333 8 -39 24 -53s36 -21 60 -21zM899 370c-92.667 0 -166.497 18.667 -221.497 56s-82.5 87.666 -82.5 150.999
c0 44 14.167 80.833 42.5 110.5s66.166 48.167 113.499 55.5v9c-84.667 24.667 -127 73.667 -127 147c0 56 25.167 101 75.5 135s117.166 51 200.499 51s150.166 -17 200.499 -51s75.5 -79 75.5 -135c0 -74.667 -42.333 -123.667 -127 -147v-9
c47.333 -7.33301 85.166 -25.833 113.499 -55.5s42.5 -66.5 42.5 -110.5c0 -63.333 -27.667 -113.666 -83 -150.999s-129.666 -56 -222.999 -56zM900.003 125c108.667 0 208.334 26.667 299.001 80s162 125.5 214 216.5s78 190.5 78 298.5s-26 207.5 -78 298.5
s-123.333 163.167 -214 216.5s-190.334 80 -299.001 80s-208.334 -26.667 -299.001 -80s-161.834 -125.5 -213.501 -216.5s-77.5 -190.5 -77.5 -298.5s25.833 -207.5 77.5 -298.5s122.834 -163.167 213.501 -216.5s190.334 -80 299.001 -80zM900.003 -55
c-106 0 -206.833 20.333 -302.5 61s-178 95.5 -247 164.5s-123.833 151.333 -164.5 247s-61 196.5 -61 302.5s20.333 207 61 303s95.5 178.5 164.5 247.5s151.333 123.833 247 164.5s196.5 61 302.5 61s206.833 -20.333 302.5 -61s178 -95.5 247 -164.5
s123.833 -151.5 164.5 -247.5s61 -197 61 -303s-20.333 -206.833 -61 -302.5s-95.5 -178 -164.5 -247s-151.333 -123.833 -247 -164.5s-196.5 -61 -302.5 -61z" />
    <glyph glyph-name="uni2468" unicode="&#x39;&#x20dd;" 
d="M609 824c0 78.667 26.167 142.001 78.5 190.001s121.833 72 208.5 72c87.333 0 158.333 -24.5 213 -73.5s82 -112.833 82 -191.5c0 -86.667 -32.333 -175.667 -97 -267c-17.333 -28.667 -61.666 -86.334 -132.999 -173.001h-232c92.667 108 152.667 181.667 180 221
c15.333 22.667 24.333 36.667 27 42l-9 1c-30.667 -22 -67.334 -33 -110.001 -33c-59.333 0 -108.833 20.333 -148.5 61s-59.5 91 -59.5 151zM993 836.001c0 26 -9 47.667 -27 65s-41 26 -69 26s-51 -8.66699 -69 -26s-27 -39 -27 -65s9 -47.667 27 -65s41 -26 69 -26
s51 8.66699 69 26s27 39 27 65zM900 125.001c108.667 0 208.334 26.667 299.001 80s162 125.5 214 216.5s78 190.5 78 298.5s-26 207.5 -78 298.5s-123.333 163.167 -214 216.5s-190.334 80 -299.001 80s-208.334 -26.667 -299.001 -80s-161.834 -125.5 -213.501 -216.5
s-77.5 -190.5 -77.5 -298.5s25.833 -207.5 77.5 -298.5s122.834 -163.167 213.501 -216.5s190.334 -80 299.001 -80zM900 -54.999c-106 0 -206.833 20.333 -302.5 61s-178 95.5 -247 164.5s-123.833 151.333 -164.5 247s-61 196.5 -61 302.5s20.333 207 61 303
s95.5 178.5 164.5 247.5s151.333 123.833 247 164.5s196.5 61 302.5 61s206.833 -20.333 302.5 -61s178 -95.5 247 -164.5s123.833 -151.5 164.5 -247.5s61 -197 61 -303s-20.333 -206.833 -61 -302.5s-95.5 -178 -164.5 -247s-151.333 -123.833 -247 -164.5
s-196.5 -61 -302.5 -61z" />
    <glyph glyph-name="uni24B6" unicode="A&#x20dd;" 
d="M824 687h153l-69 240h-15zM751 407h-197l226 693h241l225 -693h-196l-40 135h-220zM900 125c108.667 0 208.334 26.667 299.001 80s162 125.5 214 216.5s78 190.5 78 298.5s-26 207.5 -78 298.5s-123.333 163.167 -214 216.5s-190.334 80 -299.001 80
s-208.334 -26.667 -299.001 -80s-161.834 -125.5 -213.501 -216.5s-77.5 -190.5 -77.5 -298.5s25.833 -207.5 77.5 -298.5s122.834 -163.167 213.501 -216.5s190.334 -80 299.001 -80zM900 -55c-106 0 -206.833 20.333 -302.5 61s-178 95.5 -247 164.5
s-123.833 151.333 -164.5 247s-61 196.5 -61 302.5s20.333 207 61 303s95.5 178.5 164.5 247.5s151.333 123.833 247 164.5s196.5 61 302.5 61s206.833 -20.333 302.5 -61s178 -95.5 247 -164.5s123.833 -151.5 164.5 -247.5s61 -197 61 -303s-20.333 -206.833 -61 -302.5
s-95.5 -178 -164.5 -247s-151.333 -123.833 -247 -164.5s-196.5 -61 -302.5 -61z" />
    <glyph glyph-name="uni24B7" unicode="B&#x20dd;" 
d="M631 382v692h343c66.667 0 119.334 -15.167 158.001 -45.5s58 -71.833 58 -124.5c0 -39.333 -12 -72.333 -36 -99s-56 -43.667 -96 -51v-9c50 -5.33301 89.667 -23 119 -53s44 -69.667 44 -119c0 -57.333 -22.333 -103.5 -67 -138.5s-102.334 -52.5 -173.001 -52.5h-350z
M817 944v-148.001h79c72.667 0 109 25.333 109 76c0 22.667 -8 40.334 -24 53.001s-37.667 19 -65 19h-99zM817 682.999v-164h87c81.333 0 122 27.333 122 82c0 25.333 -9.16699 45.333 -27.5 60s-43.833 22 -76.5 22h-105zM900 124.999
c108.667 0 208.334 26.667 299.001 80s162 125.5 214 216.5s78 190.5 78 298.5s-26 207.5 -78 298.5s-123.333 163.167 -214 216.5s-190.334 80 -299.001 80s-208.334 -26.667 -299.001 -80s-161.834 -125.5 -213.501 -216.5s-77.5 -190.5 -77.5 -298.5
s25.833 -207.5 77.5 -298.5s122.834 -163.167 213.501 -216.5s190.334 -80 299.001 -80zM900 -55.001c-106 0 -206.833 20.333 -302.5 61s-178 95.5 -247 164.5s-123.833 151.333 -164.5 247s-61 196.5 -61 302.5s20.333 207 61 303s95.5 178.5 164.5 247.5
s151.333 123.833 247 164.5s196.5 61 302.5 61s206.833 -20.333 302.5 -61s178 -95.5 247 -164.5s123.833 -151.5 164.5 -247.5s61 -197 61 -303s-20.333 -206.833 -61 -302.5s-95.5 -178 -164.5 -247s-151.333 -123.833 -247 -164.5s-196.5 -61 -302.5 -61z" />
    <glyph glyph-name="uni24B8" unicode="C&#x20dd;" 
d="M1030 636l186 0.000976562c-6 -79.333 -37.833 -143.5 -95.5 -192.5s-131.167 -73.5 -220.5 -73.5c-98.667 0 -179.667 32.167 -243 96.5s-95 151.166 -95 260.499s31.5 196.333 94.5 261s144.167 97 243.5 97c90.667 0 164.834 -24.833 222.501 -74.5
s89.167 -114.5 94.5 -194.5h-185c-2.66699 30 -16.167 54.833 -40.5 74.5s-53.833 29.5 -88.5 29.5c-43.333 0 -78 -17.167 -104 -51.5s-39 -81.5 -39 -141.5s13 -107 39 -141s60.667 -51 104 -51c33.333 0 62.166 9.66699 86.499 29s37.833 43.333 40.5 72zM900 125.001
c108.667 0 208.334 26.667 299.001 80s162 125.5 214 216.5s78 190.5 78 298.5s-26 207.5 -78 298.5s-123.333 163.167 -214 216.5s-190.334 80 -299.001 80s-208.334 -26.667 -299.001 -80s-161.834 -125.5 -213.501 -216.5s-77.5 -190.5 -77.5 -298.5
s25.833 -207.5 77.5 -298.5s122.834 -163.167 213.501 -216.5s190.334 -80 299.001 -80zM900 -54.999c-106 0 -206.833 20.333 -302.5 61s-178 95.5 -247 164.5s-123.833 151.333 -164.5 247s-61 196.5 -61 302.5s20.333 207 61 303s95.5 178.5 164.5 247.5
s151.333 123.833 247 164.5s196.5 61 302.5 61s206.833 -20.333 302.5 -61s178 -95.5 247 -164.5s123.833 -151.5 164.5 -247.5s61 -197 61 -303s-20.333 -206.833 -61 -302.5s-95.5 -178 -164.5 -247s-151.333 -123.833 -247 -164.5s-196.5 -61 -302.5 -61z" />
    <glyph glyph-name="uni24B9" unicode="D&#x20dd;" 
d="M630 1074h298c106 0 186.5 -29.667 241.5 -89s82.5 -145 82.5 -257s-27.5 -197.667 -82.5 -257s-135.5 -89 -241.5 -89h-298v692zM822 918v-379.999h74c54 0 93.333 15.167 118 45.5s37 78.166 37 143.499c0 66 -12.333 114.333 -37 145s-64 46 -118 46h-74zM900 125.001
c108.667 0 208.334 26.667 299.001 80s162 125.5 214 216.5s78 190.5 78 298.5s-26 207.5 -78 298.5s-123.333 163.167 -214 216.5s-190.334 80 -299.001 80s-208.334 -26.667 -299.001 -80s-161.834 -125.5 -213.501 -216.5s-77.5 -190.5 -77.5 -298.5
s25.833 -207.5 77.5 -298.5s122.834 -163.167 213.501 -216.5s190.334 -80 299.001 -80zM900 -54.999c-106 0 -206.833 20.333 -302.5 61s-178 95.5 -247 164.5s-123.833 151.333 -164.5 247s-61 196.5 -61 302.5s20.333 207 61 303s95.5 178.5 164.5 247.5
s151.333 123.833 247 164.5s196.5 61 302.5 61s206.833 -20.333 302.5 -61s178 -95.5 247 -164.5s123.833 -151.5 164.5 -247.5s61 -197 61 -303s-20.333 -206.833 -61 -302.5s-95.5 -178 -164.5 -247s-151.333 -123.833 -247 -164.5s-196.5 -61 -302.5 -61z" />
    <glyph glyph-name="uni24BA" unicode="E&#x20dd;" 
d="M1158 536v-154h-495v692h495v-154h-306v-123h287v-133h-287v-128h306zM900 125c108.667 0 208.334 26.667 299.001 80s162 125.5 214 216.5s78 190.5 78 298.5s-26 207.5 -78 298.5s-123.333 163.167 -214 216.5s-190.334 80 -299.001 80s-208.334 -26.667 -299.001 -80
s-161.834 -125.5 -213.501 -216.5s-77.5 -190.5 -77.5 -298.5s25.833 -207.5 77.5 -298.5s122.834 -163.167 213.501 -216.5s190.334 -80 299.001 -80zM900 -55c-106 0 -206.833 20.333 -302.5 61s-178 95.5 -247 164.5s-123.833 151.333 -164.5 247s-61 196.5 -61 302.5
s20.333 207 61 303s95.5 178.5 164.5 247.5s151.333 123.833 247 164.5s196.5 61 302.5 61s206.833 -20.333 302.5 -61s178 -95.5 247 -164.5s123.833 -151.5 164.5 -247.5s61 -197 61 -303s-20.333 -206.833 -61 -302.5s-95.5 -178 -164.5 -247
s-151.333 -123.833 -247 -164.5s-196.5 -61 -302.5 -61z" />
    <glyph glyph-name="uni24BB" unicode="F&#x20dd;" 
d="M878 382h-198v692h493v-156h-295v-133h268v-156h-268v-247zM900 125c108.667 0 208.334 26.667 299.001 80s162 125.5 214 216.5s78 190.5 78 298.5s-26 207.5 -78 298.5s-123.333 163.167 -214 216.5s-190.334 80 -299.001 80s-208.334 -26.667 -299.001 -80
s-161.834 -125.5 -213.501 -216.5s-77.5 -190.5 -77.5 -298.5s25.833 -207.5 77.5 -298.5s122.834 -163.167 213.501 -216.5s190.334 -80 299.001 -80zM900 -55c-106 0 -206.833 20.333 -302.5 61s-178 95.5 -247 164.5s-123.833 151.333 -164.5 247s-61 196.5 -61 302.5
s20.333 207 61 303s95.5 178.5 164.5 247.5s151.333 123.833 247 164.5s196.5 61 302.5 61s206.833 -20.333 302.5 -61s178 -95.5 247 -164.5s123.833 -151.5 164.5 -247.5s61 -197 61 -303s-20.333 -206.833 -61 -302.5s-95.5 -178 -164.5 -247
s-151.333 -123.833 -247 -164.5s-196.5 -61 -302.5 -61z" />
    <glyph glyph-name="uni24BC" unicode="G&#x20dd;" 
d="M1033 613l-0.00292969 27.999h-127v125h309v-121c0 -80 -28.167 -145.833 -84.5 -197.5s-132.833 -77.5 -229.5 -77.5c-101.333 0 -183.166 32.833 -245.499 98.5s-93.5 151.834 -93.5 258.501s31.167 193 93.5 259s144.166 99 245.499 99c85.333 0 157 -22.333 215 -67
s91.667 -104 101 -178h-190c-3.33301 27.333 -16.333 49.333 -39 66s-50.667 25 -84 25c-43.333 0 -78.166 -18.5 -104.499 -55.5s-39.5 -86.5 -39.5 -148.5s13.333 -112.167 40 -150.5s61.334 -57.5 104.001 -57.5c40.667 0 72.334 8.66699 95.001 26s34 40 34 68z
M899.997 124.999c108.667 0 208.334 26.667 299.001 80s162 125.5 214 216.5s78 190.5 78 298.5s-26 207.5 -78 298.5s-123.333 163.167 -214 216.5s-190.334 80 -299.001 80s-208.334 -26.667 -299.001 -80s-161.834 -125.5 -213.501 -216.5s-77.5 -190.5 -77.5 -298.5
s25.833 -207.5 77.5 -298.5s122.834 -163.167 213.501 -216.5s190.334 -80 299.001 -80zM899.997 -55.001c-106 0 -206.833 20.333 -302.5 61s-178 95.5 -247 164.5s-123.833 151.333 -164.5 247s-61 196.5 -61 302.5s20.333 207 61 303s95.5 178.5 164.5 247.5
s151.333 123.833 247 164.5s196.5 61 302.5 61s206.833 -20.333 302.5 -61s178 -95.5 247 -164.5s123.833 -151.5 164.5 -247.5s61 -197 61 -303s-20.333 -206.833 -61 -302.5s-95.5 -178 -164.5 -247s-151.333 -123.833 -247 -164.5s-196.5 -61 -302.5 -61z" />
    <glyph glyph-name="uni24BD" unicode="H&#x20dd;" 
d="M1210 382h-187v265h-245v-265h-187v692h187v-263h245v263h187v-692zM900 125c108.667 0 208.334 26.667 299.001 80s162 125.5 214 216.5s78 190.5 78 298.5s-26 207.5 -78 298.5s-123.333 163.167 -214 216.5s-190.334 80 -299.001 80s-208.334 -26.667 -299.001 -80
s-161.834 -125.5 -213.501 -216.5s-77.5 -190.5 -77.5 -298.5s25.833 -207.5 77.5 -298.5s122.834 -163.167 213.501 -216.5s190.334 -80 299.001 -80zM900 -55c-106 0 -206.833 20.333 -302.5 61s-178 95.5 -247 164.5s-123.833 151.333 -164.5 247s-61 196.5 -61 302.5
s20.333 207 61 303s95.5 178.5 164.5 247.5s151.333 123.833 247 164.5s196.5 61 302.5 61s206.833 -20.333 302.5 -61s178 -95.5 247 -164.5s123.833 -151.5 164.5 -247.5s61 -197 61 -303s-20.333 -206.833 -61 -302.5s-95.5 -178 -164.5 -247
s-151.333 -123.833 -247 -164.5s-196.5 -61 -302.5 -61z" />
    <glyph glyph-name="uni24BE" unicode="I&#x20dd;" 
d="M1007 382h-214v692h214v-692zM900 125c108.667 0 208.334 26.667 299.001 80s162 125.5 214 216.5s78 190.5 78 298.5s-26 207.5 -78 298.5s-123.333 163.167 -214 216.5s-190.334 80 -299.001 80s-208.334 -26.667 -299.001 -80s-161.834 -125.5 -213.501 -216.5
s-77.5 -190.5 -77.5 -298.5s25.833 -207.5 77.5 -298.5s122.834 -163.167 213.501 -216.5s190.334 -80 299.001 -80zM900 -55c-106 0 -206.833 20.333 -302.5 61s-178 95.5 -247 164.5s-123.833 151.333 -164.5 247s-61 196.5 -61 302.5s20.333 207 61 303
s95.5 178.5 164.5 247.5s151.333 123.833 247 164.5s196.5 61 302.5 61s206.833 -20.333 302.5 -61s178 -95.5 247 -164.5s123.833 -151.5 164.5 -247.5s61 -197 61 -303s-20.333 -206.833 -61 -302.5s-95.5 -178 -164.5 -247s-151.333 -123.833 -247 -164.5
s-196.5 -61 -302.5 -61z" />
    <glyph glyph-name="uni24BF" unicode="J&#x20dd;" 
d="M602 621l194 -0.000976562c0 -26 6.5 -45.833 19.5 -59.5s31.167 -20.5 54.5 -20.5c48.667 0 73 29.667 73 89v433h201v-437c0 -83.333 -24 -148.666 -72 -195.999s-114 -71 -198 -71s-150.333 24 -199 72s-73 111.333 -73 190zM900 124.999
c108.667 0 208.334 26.667 299.001 80s162 125.5 214 216.5s78 190.5 78 298.5s-26 207.5 -78 298.5s-123.333 163.167 -214 216.5s-190.334 80 -299.001 80s-208.334 -26.667 -299.001 -80s-161.834 -125.5 -213.501 -216.5s-77.5 -190.5 -77.5 -298.5
s25.833 -207.5 77.5 -298.5s122.834 -163.167 213.501 -216.5s190.334 -80 299.001 -80zM900 -55.001c-106 0 -206.833 20.333 -302.5 61s-178 95.5 -247 164.5s-123.833 151.333 -164.5 247s-61 196.5 -61 302.5s20.333 207 61 303s95.5 178.5 164.5 247.5
s151.333 123.833 247 164.5s196.5 61 302.5 61s206.833 -20.333 302.5 -61s178 -95.5 247 -164.5s123.833 -151.5 164.5 -247.5s61 -197 61 -303s-20.333 -206.833 -61 -302.5s-95.5 -178 -164.5 -247s-151.333 -123.833 -247 -164.5s-196.5 -61 -302.5 -61z" />
    <glyph glyph-name="uni24C0" unicode="K&#x20dd;" 
d="M1234 1074l-229 -314l235 -378h-225l-158 254l-64 -74v-180h-182v692h182v-274h14l214 274h213zM900 125c108.667 0 208.334 26.667 299.001 80s162 125.5 214 216.5s78 190.5 78 298.5s-26 207.5 -78 298.5s-123.333 163.167 -214 216.5s-190.334 80 -299.001 80
s-208.334 -26.667 -299.001 -80s-161.834 -125.5 -213.501 -216.5s-77.5 -190.5 -77.5 -298.5s25.833 -207.5 77.5 -298.5s122.834 -163.167 213.501 -216.5s190.334 -80 299.001 -80zM900 -55c-106 0 -206.833 20.333 -302.5 61s-178 95.5 -247 164.5
s-123.833 151.333 -164.5 247s-61 196.5 -61 302.5s20.333 207 61 303s95.5 178.5 164.5 247.5s151.333 123.833 247 164.5s196.5 61 302.5 61s206.833 -20.333 302.5 -61s178 -95.5 247 -164.5s123.833 -151.5 164.5 -247.5s61 -197 61 -303s-20.333 -206.833 -61 -302.5
s-95.5 -178 -164.5 -247s-151.333 -123.833 -247 -164.5s-196.5 -61 -302.5 -61z" />
    <glyph glyph-name="uni24C1" unicode="L&#x20dd;" 
d="M1182 563v-170h-488v692h204v-522h284zM900 125c108.667 0 208.334 26.667 299.001 80s162 125.5 214 216.5s78 190.5 78 298.5s-26 207.5 -78 298.5s-123.333 163.167 -214 216.5s-190.334 80 -299.001 80s-208.334 -26.667 -299.001 -80
s-161.834 -125.5 -213.501 -216.5s-77.5 -190.5 -77.5 -298.5s25.833 -207.5 77.5 -298.5s122.834 -163.167 213.501 -216.5s190.334 -80 299.001 -80zM900 -55c-106 0 -206.833 20.333 -302.5 61s-178 95.5 -247 164.5s-123.833 151.333 -164.5 247s-61 196.5 -61 302.5
s20.333 207 61 303s95.5 178.5 164.5 247.5s151.333 123.833 247 164.5s196.5 61 302.5 61s206.833 -20.333 302.5 -61s178 -95.5 247 -164.5s123.833 -151.5 164.5 -247.5s61 -197 61 -303s-20.333 -206.833 -61 -302.5s-95.5 -178 -164.5 -247
s-151.333 -123.833 -247 -164.5s-196.5 -61 -302.5 -61z" />
    <glyph glyph-name="uni24C2" unicode="M&#x20dd;" 
d="M698 382h-151v692h190l162 -448h5l162 448h189v-692h-152v420h-15l-140 -381h-96l-139 381h-15v-420zM900 125c108.667 0 208.334 26.667 299.001 80s162 125.5 214 216.5s78 190.5 78 298.5s-26 207.5 -78 298.5s-123.333 163.167 -214 216.5s-190.334 80 -299.001 80
s-208.334 -26.667 -299.001 -80s-161.834 -125.5 -213.501 -216.5s-77.5 -190.5 -77.5 -298.5s25.833 -207.5 77.5 -298.5s122.834 -163.167 213.501 -216.5s190.334 -80 299.001 -80zM900 -55c-106 0 -206.833 20.333 -302.5 61s-178 95.5 -247 164.5
s-123.833 151.333 -164.5 247s-61 196.5 -61 302.5s20.333 207 61 303s95.5 178.5 164.5 247.5s151.333 123.833 247 164.5s196.5 61 302.5 61s206.833 -20.333 302.5 -61s178 -95.5 247 -164.5s123.833 -151.5 164.5 -247.5s61 -197 61 -303s-20.333 -206.833 -61 -302.5
s-95.5 -178 -164.5 -247s-151.333 -123.833 -247 -164.5s-196.5 -61 -302.5 -61z" />
    <glyph glyph-name="uni24C3" unicode="N&#x20dd;" 
d="M769 382h-171v692h144l276 -379h14v379h170v-692h-142l-278 384h-13v-384zM900 125c108.667 0 208.334 26.667 299.001 80s162 125.5 214 216.5s78 190.5 78 298.5s-26 207.5 -78 298.5s-123.333 163.167 -214 216.5s-190.334 80 -299.001 80
s-208.334 -26.667 -299.001 -80s-161.834 -125.5 -213.501 -216.5s-77.5 -190.5 -77.5 -298.5s25.833 -207.5 77.5 -298.5s122.834 -163.167 213.501 -216.5s190.334 -80 299.001 -80zM900 -55c-106 0 -206.833 20.333 -302.5 61s-178 95.5 -247 164.5
s-123.833 151.333 -164.5 247s-61 196.5 -61 302.5s20.333 207 61 303s95.5 178.5 164.5 247.5s151.333 123.833 247 164.5s196.5 61 302.5 61s206.833 -20.333 302.5 -61s178 -95.5 247 -164.5s123.833 -151.5 164.5 -247.5s61 -197 61 -303s-20.333 -206.833 -61 -302.5
s-95.5 -178 -164.5 -247s-151.333 -123.833 -247 -164.5s-196.5 -61 -302.5 -61z" />
    <glyph glyph-name="uni24C4" unicode="O&#x20dd;" 
d="M900 535c41.333 0 75.166 16.667 101.499 50s39.5 80.666 39.5 141.999c0 62 -13.167 109.667 -39.5 143s-60.166 50 -101.499 50s-75.166 -16.667 -101.499 -50s-39.5 -81 -39.5 -143c0 -61.333 13.167 -108.666 39.5 -141.999s60.166 -50 101.499 -50zM900 370
c-98 0 -179 31.833 -243 95.5s-96 150.834 -96 261.501c0 111.333 32 198.833 96 262.5s145 95.5 243 95.5s179 -31.833 243 -95.5s96 -151.167 96 -262.5c0 -110.667 -32 -197.834 -96 -261.501s-145 -95.5 -243 -95.5zM900 125c108.667 0 208.334 26.667 299.001 80
s162 125.5 214 216.5s78 190.5 78 298.5s-26 207.5 -78 298.5s-123.333 163.167 -214 216.5s-190.334 80 -299.001 80s-208.334 -26.667 -299.001 -80s-161.834 -125.5 -213.501 -216.5s-77.5 -190.5 -77.5 -298.5s25.833 -207.5 77.5 -298.5
s122.834 -163.167 213.501 -216.5s190.334 -80 299.001 -80zM900 -55c-106 0 -206.833 20.333 -302.5 61s-178 95.5 -247 164.5s-123.833 151.333 -164.5 247s-61 196.5 -61 302.5s20.333 207 61 303s95.5 178.5 164.5 247.5s151.333 123.833 247 164.5s196.5 61 302.5 61
s206.833 -20.333 302.5 -61s178 -95.5 247 -164.5s123.833 -151.5 164.5 -247.5s61 -197 61 -303s-20.333 -206.833 -61 -302.5s-95.5 -178 -164.5 -247s-151.333 -123.833 -247 -164.5s-196.5 -61 -302.5 -61z" />
    <glyph glyph-name="uni24C5" unicode="P&#x20dd;" 
d="M972 1074c78.667 0 141.333 -23.168 188 -69.501s70 -107.5 70 -183.5c0 -75.333 -23.333 -135.666 -70 -180.999s-110 -68 -190 -68h-111v-190h-202v692h315zM1035 820.999c0 66.667 -32.667 100 -98 100h-89v-199h89c65.333 0 98 33 98 99zM899.999 124.999
c108.667 0 208.334 26.667 299.001 80s162 125.5 214 216.5s78 190.5 78 298.5s-26 207.5 -78 298.5s-123.333 163.167 -214 216.5s-190.334 80 -299.001 80s-208.334 -26.667 -299.001 -80s-161.834 -125.5 -213.501 -216.5s-77.5 -190.5 -77.5 -298.5
s25.833 -207.5 77.5 -298.5s122.834 -163.167 213.501 -216.5s190.334 -80 299.001 -80zM899.999 -55.001c-106 0 -206.833 20.333 -302.5 61s-178 95.5 -247 164.5s-123.833 151.333 -164.5 247s-61 196.5 -61 302.5s20.333 207 61 303s95.5 178.5 164.5 247.5
s151.333 123.833 247 164.5s196.5 61 302.5 61s206.833 -20.333 302.5 -61s178 -95.5 247 -164.5s123.833 -151.5 164.5 -247.5s61 -197 61 -303s-20.333 -206.833 -61 -302.5s-95.5 -178 -164.5 -247s-151.333 -123.833 -247 -164.5s-196.5 -61 -302.5 -61z" />
    <glyph glyph-name="uni24C6" unicode="Q&#x20dd;" 
d="M1219 322l-190.001 -0.000976562l-35 60c-29.333 -8 -60.666 -12 -93.999 -12c-98 0 -179 31.833 -243 95.5s-96 150.834 -96 261.501c0 111.333 32 198.833 96 262.5s145 95.5 243 95.5s179 -31.833 243 -95.5s96 -151.167 96 -262.5c0 -118 -37 -209.667 -111 -275z
M899.999 534.999c12 0 22.332 1.33105 30.999 3.99805l-54 96h110l22 -27c21.333 30.667 32 70.334 32 119.001c0 62 -13.167 109.667 -39.5 143s-60.166 50 -101.499 50s-75.166 -16.667 -101.499 -50s-39.5 -81 -39.5 -143c0 -61.333 13.167 -108.666 39.5 -141.999
s60.166 -50 101.499 -50zM899.998 124.997c108.667 0 208.334 26.667 299.001 80s162 125.5 214 216.5s78 190.5 78 298.5s-26 207.5 -78 298.5s-123.333 163.167 -214 216.5s-190.334 80 -299.001 80s-208.334 -26.667 -299.001 -80s-161.834 -125.5 -213.501 -216.5
s-77.5 -190.5 -77.5 -298.5s25.833 -207.5 77.5 -298.5s122.834 -163.167 213.501 -216.5s190.334 -80 299.001 -80zM899.998 -55.0029c-106 0 -206.833 20.333 -302.5 61s-178 95.5 -247 164.5s-123.833 151.333 -164.5 247s-61 196.5 -61 302.5s20.333 207 61 303
s95.5 178.5 164.5 247.5s151.333 123.833 247 164.5s196.5 61 302.5 61s206.833 -20.333 302.5 -61s178 -95.5 247 -164.5s123.833 -151.5 164.5 -247.5s61 -197 61 -303s-20.333 -206.833 -61 -302.5s-95.5 -178 -164.5 -247s-151.333 -123.833 -247 -164.5
s-196.5 -61 -302.5 -61z" />
    <glyph glyph-name="uni24C7" unicode="R&#x20dd;" 
d="M936 1074c87.333 0 155.001 -19.668 203.001 -59.001s72 -94.666 72 -165.999c0 -47.333 -12.333 -88 -37 -122s-57.334 -57.667 -98.001 -71l149 -274h-208l-117 238h-93v-238h-183v692h312zM807.001 753.999l105 0.000976562c31.333 0 55.833 7.16699 73.5 21.5
s26.5 35.166 26.5 62.499c0 28 -8.66699 49.5 -26 64.5s-41.333 22.5 -72 22.5h-107v-171zM900.001 125c108.667 0 208.334 26.667 299.001 80s162 125.5 214 216.5s78 190.5 78 298.5s-26 207.5 -78 298.5s-123.333 163.167 -214 216.5s-190.334 80 -299.001 80
s-208.334 -26.667 -299.001 -80s-161.834 -125.5 -213.501 -216.5s-77.5 -190.5 -77.5 -298.5s25.833 -207.5 77.5 -298.5s122.834 -163.167 213.501 -216.5s190.334 -80 299.001 -80zM900.001 -55c-106 0 -206.833 20.333 -302.5 61s-178 95.5 -247 164.5
s-123.833 151.333 -164.5 247s-61 196.5 -61 302.5s20.333 207 61 303s95.5 178.5 164.5 247.5s151.333 123.833 247 164.5s196.5 61 302.5 61s206.833 -20.333 302.5 -61s178 -95.5 247 -164.5s123.833 -151.5 164.5 -247.5s61 -197 61 -303s-20.333 -206.833 -61 -302.5
s-95.5 -178 -164.5 -247s-151.333 -123.833 -247 -164.5s-196.5 -61 -302.5 -61z" />
    <glyph glyph-name="uni24C8" unicode="S&#x20dd;" 
d="M601 585l190.002 -0.000976562c3.33301 -21.333 15.166 -38.166 35.499 -50.499s46.5 -18.5 78.5 -18.5c32.667 0 58.667 6.16699 78 18.5s29 28.833 29 49.5c0 16.667 -7.83301 29.667 -23.5 39s-44.167 17.666 -85.5 24.999l-90 16
c-64.667 10.667 -114 33.167 -148 67.5s-51 78.166 -51 131.499c0 66.667 26.167 120.334 78.5 161.001s121.833 61 208.5 61c81.333 0 148 -19 200 -57s80.333 -88.667 85 -152h-184c-3.33301 20.667 -13.833 36.834 -31.5 48.501s-40.834 17.5 -69.501 17.5
s-51.667 -5.83301 -69 -17.5s-26 -27.167 -26 -46.5c0 -30.667 33 -51 99 -61l97 -17c132 -22.667 198 -89 198 -199c0 -70.667 -27.333 -126.667 -82 -168s-128 -62 -220 -62c-89.333 0 -160.333 19 -213 57s-80.667 90.333 -84 157zM900.002 124.999
c108.667 0 208.334 26.667 299.001 80s162 125.5 214 216.5s78 190.5 78 298.5s-26 207.5 -78 298.5s-123.333 163.167 -214 216.5s-190.334 80 -299.001 80s-208.334 -26.667 -299.001 -80s-161.834 -125.5 -213.501 -216.5s-77.5 -190.5 -77.5 -298.5
s25.833 -207.5 77.5 -298.5s122.834 -163.167 213.501 -216.5s190.334 -80 299.001 -80zM900.002 -55.001c-106 0 -206.833 20.333 -302.5 61s-178 95.5 -247 164.5s-123.833 151.333 -164.5 247s-61 196.5 -61 302.5s20.333 207 61 303s95.5 178.5 164.5 247.5
s151.333 123.833 247 164.5s196.5 61 302.5 61s206.833 -20.333 302.5 -61s178 -95.5 247 -164.5s123.833 -151.5 164.5 -247.5s61 -197 61 -303s-20.333 -206.833 -61 -302.5s-95.5 -178 -164.5 -247s-151.333 -123.833 -247 -164.5s-196.5 -61 -302.5 -61z" />
    <glyph glyph-name="uni24C9" unicode="T&#x20dd;" 
d="M1002 359h-204v526h-195v167h594v-167h-195v-526zM900 125c108.667 0 208.334 26.667 299.001 80s162 125.5 214 216.5s78 190.5 78 298.5s-26 207.5 -78 298.5s-123.333 163.167 -214 216.5s-190.334 80 -299.001 80s-208.334 -26.667 -299.001 -80
s-161.834 -125.5 -213.501 -216.5s-77.5 -190.5 -77.5 -298.5s25.833 -207.5 77.5 -298.5s122.834 -163.167 213.501 -216.5s190.334 -80 299.001 -80zM900 -55c-106 0 -206.833 20.333 -302.5 61s-178 95.5 -247 164.5s-123.833 151.333 -164.5 247s-61 196.5 -61 302.5
s20.333 207 61 303s95.5 178.5 164.5 247.5s151.333 123.833 247 164.5s196.5 61 302.5 61s206.833 -20.333 302.5 -61s178 -95.5 247 -164.5s123.833 -151.5 164.5 -247.5s61 -197 61 -303s-20.333 -206.833 -61 -302.5s-95.5 -178 -164.5 -247
s-151.333 -123.833 -247 -164.5s-196.5 -61 -302.5 -61z" />
    <glyph glyph-name="uni24CA" unicode="U&#x20dd;" 
d="M900 512c34 0 61 9.33301 81 28s30 44 30 76v436h196v-454c0 -72.667 -28.167 -132.667 -84.5 -180s-130.5 -71 -222.5 -71c-91.333 0 -165.166 23.667 -221.499 71s-84.5 107.333 -84.5 180v454h195v-436c0 -32 10.167 -57.333 30.5 -76s47.166 -28 80.499 -28zM900 125
c108.667 0 208.334 26.667 299.001 80s162 125.5 214 216.5s78 190.5 78 298.5s-26 207.5 -78 298.5s-123.333 163.167 -214 216.5s-190.334 80 -299.001 80s-208.334 -26.667 -299.001 -80s-161.834 -125.5 -213.501 -216.5s-77.5 -190.5 -77.5 -298.5
s25.833 -207.5 77.5 -298.5s122.834 -163.167 213.501 -216.5s190.334 -80 299.001 -80zM900 -55c-106 0 -206.833 20.333 -302.5 61s-178 95.5 -247 164.5s-123.833 151.333 -164.5 247s-61 196.5 -61 302.5s20.333 207 61 303s95.5 178.5 164.5 247.5
s151.333 123.833 247 164.5s196.5 61 302.5 61s206.833 -20.333 302.5 -61s178 -95.5 247 -164.5s123.833 -151.5 164.5 -247.5s61 -197 61 -303s-20.333 -206.833 -61 -302.5s-95.5 -178 -164.5 -247s-151.333 -123.833 -247 -164.5s-196.5 -61 -302.5 -61z" />
    <glyph glyph-name="uni24CB" unicode="V&#x20dd;" 
d="M767 354l-213 692h221l120 -496h11l120 496h220l-213 -692h-266zM900 125c108.667 0 208.334 26.667 299.001 80s162 125.5 214 216.5s78 190.5 78 298.5s-26 207.5 -78 298.5s-123.333 163.167 -214 216.5s-190.334 80 -299.001 80s-208.334 -26.667 -299.001 -80
s-161.834 -125.5 -213.501 -216.5s-77.5 -190.5 -77.5 -298.5s25.833 -207.5 77.5 -298.5s122.834 -163.167 213.501 -216.5s190.334 -80 299.001 -80zM900 -55c-106 0 -206.833 20.333 -302.5 61s-178 95.5 -247 164.5s-123.833 151.333 -164.5 247s-61 196.5 -61 302.5
s20.333 207 61 303s95.5 178.5 164.5 247.5s151.333 123.833 247 164.5s196.5 61 302.5 61s206.833 -20.333 302.5 -61s178 -95.5 247 -164.5s123.833 -151.5 164.5 -247.5s61 -197 61 -303s-20.333 -206.833 -61 -302.5s-95.5 -178 -164.5 -247
s-151.333 -123.833 -247 -164.5s-196.5 -61 -302.5 -61z" />
    <glyph glyph-name="uni24CC" unicode="W&#x20dd;" 
d="M897 783l-104 -424h-169l-162 693h179l81 -462h9l101 462h137l101 -462h9l81 462h178l-161 -693h-169l-105 424h-6zM900 125c108.667 0 208.334 26.667 299.001 80s162 125.5 214 216.5s78 190.5 78 298.5s-26 207.5 -78 298.5s-123.333 163.167 -214 216.5
s-190.334 80 -299.001 80s-208.334 -26.667 -299.001 -80s-161.834 -125.5 -213.501 -216.5s-77.5 -190.5 -77.5 -298.5s25.833 -207.5 77.5 -298.5s122.834 -163.167 213.501 -216.5s190.334 -80 299.001 -80zM900 -55c-106 0 -206.833 20.333 -302.5 61
s-178 95.5 -247 164.5s-123.833 151.333 -164.5 247s-61 196.5 -61 302.5s20.333 207 61 303s95.5 178.5 164.5 247.5s151.333 123.833 247 164.5s196.5 61 302.5 61s206.833 -20.333 302.5 -61s178 -95.5 247 -164.5s123.833 -151.5 164.5 -247.5s61 -197 61 -303
s-20.333 -206.833 -61 -302.5s-95.5 -178 -164.5 -247s-151.333 -123.833 -247 -164.5s-196.5 -61 -302.5 -61z" />
    <glyph glyph-name="uni24CD" unicode="X&#x20dd;" 
d="M1234 1074l-216 -346l215 -346h-212l-120 222h-10l-119 -222h-216l219 347l-218 345h222l117 -222h10l118 222h210zM900 125c108.667 0 208.334 26.667 299.001 80s162 125.5 214 216.5s78 190.5 78 298.5s-26 207.5 -78 298.5s-123.333 163.167 -214 216.5
s-190.334 80 -299.001 80s-208.334 -26.667 -299.001 -80s-161.834 -125.5 -213.501 -216.5s-77.5 -190.5 -77.5 -298.5s25.833 -207.5 77.5 -298.5s122.834 -163.167 213.501 -216.5s190.334 -80 299.001 -80zM900 -55c-106 0 -206.833 20.333 -302.5 61
s-178 95.5 -247 164.5s-123.833 151.333 -164.5 247s-61 196.5 -61 302.5s20.333 207 61 303s95.5 178.5 164.5 247.5s151.333 123.833 247 164.5s196.5 61 302.5 61s206.833 -20.333 302.5 -61s178 -95.5 247 -164.5s123.833 -151.5 164.5 -247.5s61 -197 61 -303
s-20.333 -206.833 -61 -302.5s-95.5 -178 -164.5 -247s-151.333 -123.833 -247 -164.5s-196.5 -61 -302.5 -61z" />
    <glyph glyph-name="uni24CE" unicode="Y&#x20dd;" 
d="M1005 366h-209v224l-238 468h220l120 -273h6l120 273h218l-237 -467v-225zM900 125c108.667 0 208.334 26.667 299.001 80s162 125.5 214 216.5s78 190.5 78 298.5s-26 207.5 -78 298.5s-123.333 163.167 -214 216.5s-190.334 80 -299.001 80
s-208.334 -26.667 -299.001 -80s-161.834 -125.5 -213.501 -216.5s-77.5 -190.5 -77.5 -298.5s25.833 -207.5 77.5 -298.5s122.834 -163.167 213.501 -216.5s190.334 -80 299.001 -80zM900 -55c-106 0 -206.833 20.333 -302.5 61s-178 95.5 -247 164.5
s-123.833 151.333 -164.5 247s-61 196.5 -61 302.5s20.333 207 61 303s95.5 178.5 164.5 247.5s151.333 123.833 247 164.5s196.5 61 302.5 61s206.833 -20.333 302.5 -61s178 -95.5 247 -164.5s123.833 -151.5 164.5 -247.5s61 -197 61 -303s-20.333 -206.833 -61 -302.5
s-95.5 -178 -164.5 -247s-151.333 -123.833 -247 -164.5s-196.5 -61 -302.5 -61z" />
    <glyph glyph-name="uni24CF" unicode="Z&#x20dd;" 
d="M627 382v130l298 391v10h-297v161h540v-130l-298 -391v-10h309v-161h-552zM900 125c108.667 0 208.334 26.667 299.001 80s162 125.5 214 216.5s78 190.5 78 298.5s-26 207.5 -78 298.5s-123.333 163.167 -214 216.5s-190.334 80 -299.001 80
s-208.334 -26.667 -299.001 -80s-161.834 -125.5 -213.501 -216.5s-77.5 -190.5 -77.5 -298.5s25.833 -207.5 77.5 -298.5s122.834 -163.167 213.501 -216.5s190.334 -80 299.001 -80zM900 -55c-106 0 -206.833 20.333 -302.5 61s-178 95.5 -247 164.5
s-123.833 151.333 -164.5 247s-61 196.5 -61 302.5s20.333 207 61 303s95.5 178.5 164.5 247.5s151.333 123.833 247 164.5s196.5 61 302.5 61s206.833 -20.333 302.5 -61s178 -95.5 247 -164.5s123.833 -151.5 164.5 -247.5s61 -197 61 -303s-20.333 -206.833 -61 -302.5
s-95.5 -178 -164.5 -247s-151.333 -123.833 -247 -164.5s-196.5 -61 -302.5 -61z" />
    <glyph glyph-name="uni24EA" unicode="&#x23;&#x20dd;" 
d="M900 529c32 0 57.167 16.332 75.5 48.999s27.5 82.334 27.5 149.001c0 131.333 -34.333 197 -103 197c-68 0 -102 -65.667 -102 -197c0 -132 34 -198 102 -198zM898 369.999c-88 0 -158.333 31.833 -211 95.5s-79 150.834 -79 261.501s26.333 197.834 79 261.501
s123 95.5 211 95.5s159 -31.833 213 -95.5s81 -150.834 81 -261.501s-27 -197.834 -81 -261.501s-125 -95.5 -213 -95.5zM900 124.999c108.667 0 208.334 26.667 299.001 80s162 125.5 214 216.5s78 190.5 78 298.5s-26 207.5 -78 298.5s-123.333 163.167 -214 216.5
s-190.334 80 -299.001 80s-208.334 -26.667 -299.001 -80s-161.834 -125.5 -213.501 -216.5s-77.5 -190.5 -77.5 -298.5s25.833 -207.5 77.5 -298.5s122.834 -163.167 213.501 -216.5s190.334 -80 299.001 -80zM900 -55.001c-106 0 -206.833 20.333 -302.5 61
s-178 95.5 -247 164.5s-123.833 151.333 -164.5 247s-61 196.5 -61 302.5s20.333 207 61 303s95.5 178.5 164.5 247.5s151.333 123.833 247 164.5s196.5 61 302.5 61s206.833 -20.333 302.5 -61s178 -95.5 247 -164.5s123.833 -151.5 164.5 -247.5s61 -197 61 -303
s-20.333 -206.833 -61 -302.5s-95.5 -178 -164.5 -247s-151.333 -123.833 -247 -164.5s-196.5 -61 -302.5 -61z" />
    <glyph glyph-name="uni24FF" unicode="&#x30;&#x20dd;&#x25cf;" 
d="M898 506c-70 0 -105 73.667 -105 221c0 146.667 35 220 105 220s105 -73.333 105 -220c0 -147.333 -35 -221 -105 -221zM896 338c98 0 176.167 34.667 234.5 104s87.5 164.333 87.5 285s-29.167 215.667 -87.5 285s-136.5 104 -234.5 104
c-97.333 0 -174.5 -34.667 -231.5 -104s-85.5 -164.333 -85.5 -285s28.5 -215.667 85.5 -285s134.167 -104 231.5 -104zM900 -53c-104.667 0 -204.668 20.499 -300.001 61.499s-177.666 96.167 -246.999 165.5s-124.5 151.833 -165.5 247.5s-61.5 195.834 -61.5 300.501
c0 139.333 34.667 268.5 104 387.5s163.5 213.167 282.5 282.5s248.167 104 387.5 104c104.667 0 204.834 -20.5 300.501 -61.5s178.167 -96.167 247.5 -165.5s124.5 -151.666 165.5 -246.999s61.5 -195.333 61.5 -300s-20.5 -204.834 -61.5 -300.501
s-96.167 -178.167 -165.5 -247.5s-151.833 -124.5 -247.5 -165.5s-195.834 -61.5 -300.501 -61.5z" />
    <glyph glyph-name="uni278A" unicode="&#x31;&#x20dd;&#x25cf;" 
d="M1049 351v752h-221l-183 -121v-200l176 117h5v-548h223zM900 -53c-104.667 0 -204.668 20.499 -300.001 61.499s-177.666 96.167 -246.999 165.5s-124.5 151.833 -165.5 247.5s-61.5 195.834 -61.5 300.501c0 139.333 34.667 268.5 104 387.5s163.5 213.167 282.5 282.5
s248.167 104 387.5 104c104.667 0 204.834 -20.5 300.501 -61.5s178.167 -96.167 247.5 -165.5s124.5 -151.666 165.5 -246.999s61.5 -195.333 61.5 -300s-20.5 -204.834 -61.5 -300.501s-96.167 -178.167 -165.5 -247.5s-151.833 -124.5 -247.5 -165.5
s-195.834 -61.5 -300.501 -61.5z" />
    <glyph glyph-name="uni278B" unicode="&#x32;&#x20dd;&#x25cf;" 
d="M802 849v5.00098c0 28 7.66699 50.667 23 68s37 26 65 26c24 0 43.833 -6.66699 59.5 -20s23.5 -30.333 23.5 -51c0 -22.667 -7.16699 -44.334 -21.5 -65.001s-39.166 -47.667 -74.499 -81l-263 -240v-141h583v180h-294v3l139 127c48 44 83.167 83.667 105.5 119
s33.5 74 33.5 116c0 62.667 -26.333 115 -79 157s-119.334 63 -200.001 63c-93.333 0 -166.833 -24.5 -220.5 -73.5s-80.5 -111.5 -80.5 -187.5v-5h201zM900 -52.999c-104.667 0 -204.668 20.499 -300.001 61.499s-177.666 96.167 -246.999 165.5
s-124.5 151.833 -165.5 247.5s-61.5 195.834 -61.5 300.501c0 139.333 34.667 268.5 104 387.5s163.5 213.167 282.5 282.5s248.167 104 387.5 104c104.667 0 204.834 -20.5 300.501 -61.5s178.167 -96.167 247.5 -165.5s124.5 -151.666 165.5 -246.999
s61.5 -195.333 61.5 -300s-20.5 -204.834 -61.5 -300.501s-96.167 -178.167 -165.5 -247.5s-151.833 -124.5 -247.5 -165.5s-195.834 -61.5 -300.501 -61.5z" />
    <glyph glyph-name="uni278C" unicode="&#x33;&#x20dd;&#x25cf;" 
d="M812 657h82.001c31.333 0 56.5 -7 75.5 -21s28.833 -32.667 29.5 -56c0 -22.667 -9.66699 -41.167 -29 -55.5s-45 -21.5 -77 -21.5c-31.333 0.666992 -56.833 8.33398 -76.5 23.001s-30.5 33.667 -32.5 57h-201c1.33301 -71.333 30.166 -129.833 86.499 -175.5
s130.833 -68.5 223.5 -68.5c94 0 170.667 20.667 230 62s88.666 96.666 87.999 165.999c-0.666992 49.333 -17.167 90.166 -49.5 122.499s-69.5 50.5 -111.5 54.5v6c36 5.33301 68.5 23.333 97.5 54s43.167 66.667 42.5 108c-1.33301 60.667 -28.833 109.667 -82.5 147
s-124.5 56 -212.5 56c-95.333 0 -169 -21.333 -221 -64s-79.667 -102.334 -83 -179.001h203c1.33301 24.667 10.5 44.334 27.5 59.001s40.167 22 69.5 22c26 0 47.333 -6.5 64 -19.5s25.334 -29.833 26.001 -50.5c0 -21.333 -8.5 -38.666 -25.5 -51.999
s-39.167 -20 -66.5 -20h-77v-154zM900.001 -53c-104.667 0 -204.668 20.499 -300.001 61.499s-177.666 96.167 -246.999 165.5s-124.5 151.833 -165.5 247.5s-61.5 195.834 -61.5 300.501c0 139.333 34.667 268.5 104 387.5s163.5 213.167 282.5 282.5
s248.167 104 387.5 104c104.667 0 204.834 -20.5 300.501 -61.5s178.167 -96.167 247.5 -165.5s124.5 -151.666 165.5 -246.999s61.5 -195.333 61.5 -300s-20.5 -204.834 -61.5 -300.501s-96.167 -178.167 -165.5 -247.5s-151.833 -124.5 -247.5 -165.5
s-195.834 -61.5 -300.501 -61.5z" />
    <glyph glyph-name="uni278D" unicode="&#x34;&#x20dd;&#x25cf;" 
d="M813 1103c-116.667 -189.333 -204.333 -343 -263 -461v-170h372v-121h189v121h102v170h-102v461h-298zM743.001 643c8 16 64.667 115.667 170 299h9v-300h-179v1zM900.001 -53c-104.667 0 -204.668 20.499 -300.001 61.499s-177.666 96.167 -246.999 165.5
s-124.5 151.833 -165.5 247.5s-61.5 195.834 -61.5 300.501c0 139.333 34.667 268.5 104 387.5s163.5 213.167 282.5 282.5s248.167 104 387.5 104c104.667 0 204.834 -20.5 300.501 -61.5s178.167 -96.167 247.5 -165.5s124.5 -151.666 165.5 -246.999
s61.5 -195.333 61.5 -300s-20.5 -204.834 -61.5 -300.501s-96.167 -178.167 -165.5 -247.5s-151.833 -124.5 -247.5 -165.5s-195.834 -61.5 -300.501 -61.5z" />
    <glyph glyph-name="uni278E" unicode="&#x35;&#x20dd;&#x25cf;" 
d="M602 579c1.33301 -70 29.835 -126.669 85.502 -170.002s128.167 -65 217.5 -65c96 0 172.667 25 230 75s86 117.333 86 202c0 74 -23.5 132.833 -70.5 176.5s-107.167 65.5 -180.5 65.5c-38.667 0 -72.334 -6.66699 -101.001 -20s-49 -29.666 -61 -48.999h-5l12 156h356
v159h-525l-29 -448h189c8 15.333 20.833 28.333 38.5 39s38.5 16 62.5 16c31.333 0 57.166 -9.5 77.499 -28.5s30.5 -43.833 30.5 -74.5c0 -32 -10.5 -57.667 -31.5 -77s-46.167 -29 -75.5 -29c-27.333 0 -51 6.33301 -71 19s-32.333 30.334 -37 53.001h-198z
M900.002 -53.002c-104.667 0 -204.668 20.499 -300.001 61.499s-177.666 96.167 -246.999 165.5s-124.5 151.833 -165.5 247.5s-61.5 195.834 -61.5 300.501c0 139.333 34.667 268.5 104 387.5s163.5 213.167 282.5 282.5s248.167 104 387.5 104
c104.667 0 204.834 -20.5 300.501 -61.5s178.167 -96.167 247.5 -165.5s124.5 -151.666 165.5 -246.999s61.5 -195.333 61.5 -300s-20.5 -204.834 -61.5 -300.501s-96.167 -178.167 -165.5 -247.5s-151.833 -124.5 -247.5 -165.5s-195.834 -61.5 -300.501 -61.5z" />
    <glyph glyph-name="uni278F" unicode="&#x36;&#x20dd;&#x25cf;" 
d="M1215 623c0 65.333 -21.499 119.832 -64.499 163.499s-96.833 65.5 -161.5 65.5c-45.333 0 -85.333 -11.667 -120 -35l-10 1c9.33301 15.333 19 30 29 44c49.333 67.333 114.666 147.666 195.999 240.999h-251c-78 -95.333 -127.667 -160 -149 -194
c-66.667 -97.333 -100 -191.666 -100 -282.999c0 -85.333 29.5 -154.666 88.5 -207.999s135.833 -80 230.5 -80c94 0 169.5 26 226.5 78s85.5 121 85.5 207zM791.001 608.999c0 30.667 10.501 56.167 31.501 76.5s47.5 30.5 79.5 30.5c32.667 0 59.5 -10.167 80.5 -30.5
s31.5 -45.833 31.5 -76.5s-10.5 -56 -31.5 -76s-47.833 -30 -80.5 -30s-59.334 10 -80.001 30s-31 45.333 -31 76zM900.002 -53.001c-104.667 0 -204.668 20.499 -300.001 61.499s-177.666 96.167 -246.999 165.5s-124.5 151.833 -165.5 247.5s-61.5 195.834 -61.5 300.501
c0 139.333 34.667 268.5 104 387.5s163.5 213.167 282.5 282.5s248.167 104 387.5 104c104.667 0 204.834 -20.5 300.501 -61.5s178.167 -96.167 247.5 -165.5s124.5 -151.666 165.5 -246.999s61.5 -195.333 61.5 -300s-20.5 -204.834 -61.5 -300.501
s-96.167 -178.167 -165.5 -247.5s-151.833 -124.5 -247.5 -165.5s-195.834 -61.5 -300.501 -61.5z" />
    <glyph glyph-name="uni2790" unicode="&#x37;&#x20dd;&#x25cf;" 
d="M610 1099v-181h366v-2l-309 -569h237l297 573v179h-591zM900 -53c-104.667 0 -204.668 20.499 -300.001 61.499s-177.666 96.167 -246.999 165.5s-124.5 151.833 -165.5 247.5s-61.5 195.834 -61.5 300.501c0 139.333 34.667 268.5 104 387.5s163.5 213.167 282.5 282.5
s248.167 104 387.5 104c104.667 0 204.834 -20.5 300.501 -61.5s178.167 -96.167 247.5 -165.5s124.5 -151.666 165.5 -246.999s61.5 -195.333 61.5 -300s-20.5 -204.834 -61.5 -300.501s-96.167 -178.167 -165.5 -247.5s-151.833 -124.5 -247.5 -165.5
s-195.834 -61.5 -300.501 -61.5z" />
    <glyph glyph-name="uni2791" unicode="&#x38;&#x20dd;&#x25cf;" 
d="M898 801c-27.333 0 -49.833 8 -67.5 24s-26.5 36.333 -26.5 61c0 25.333 8.66699 46.166 26 62.499s40 24.5 68 24.5c28.667 0 51.667 -8.16699 69 -24.5s26 -37.166 26 -62.499s-8.83301 -45.833 -26.5 -61.5s-40.5 -23.5 -68.5 -23.5zM898 482
c-33.333 0 -60.666 9.16895 -81.999 27.502s-32 42.166 -32 71.499c0 28.667 10.667 52.334 32 71.001s48.666 28 81.999 28s60.833 -9.33301 82.5 -28s32.5 -42.334 32.5 -71.001s-10.833 -52.334 -32.5 -71.001s-49.167 -28 -82.5 -28zM898 338.002
c102 0 182.832 20.333 242.499 61s89.5 96 89.5 166c0 47.333 -14.833 87 -44.5 119s-70.5 52.333 -122.5 61v3c90 26.667 135 81 135 163c0 62 -27.167 111.5 -81.5 148.5s-127.166 55.5 -218.499 55.5c-90.667 0 -163.167 -18.5 -217.5 -55.5s-81.5 -86.5 -81.5 -148.5
c0 -82 45 -136.333 135 -163v-3c-52 -8.66699 -92.833 -29 -122.5 -61s-44.5 -71.667 -44.5 -119c0 -69.333 29.833 -124.5 89.5 -165.5s140.167 -61.5 241.5 -61.5zM899.999 -52.998c-104.667 0 -204.668 20.499 -300.001 61.499s-177.666 96.167 -246.999 165.5
s-124.5 151.833 -165.5 247.5s-61.5 195.834 -61.5 300.501c0 139.333 34.667 268.5 104 387.5s163.5 213.167 282.5 282.5s248.167 104 387.5 104c104.667 0 204.834 -20.5 300.501 -61.5s178.167 -96.167 247.5 -165.5s124.5 -151.666 165.5 -246.999
s61.5 -195.333 61.5 -300s-20.5 -204.834 -61.5 -300.501s-96.167 -178.167 -165.5 -247.5s-151.833 -124.5 -247.5 -165.5s-195.834 -61.5 -300.501 -61.5z" />
    <glyph glyph-name="uni2792" unicode="&#x39;&#x20dd;&#x25cf;" 
d="M1008 845c0 -30.667 -10.5 -56.167 -31.5 -76.5s-47.833 -30.5 -80.5 -30.5c-32 0 -58.5 10.167 -79.5 30.5s-31.5 45.833 -31.5 76.5s10.5 56.167 31.5 76.5s47.5 30.5 79.5 30.5c32.667 0 59.5 -10.167 80.5 -30.5s31.5 -45.833 31.5 -76.5zM584 832
c0 -66 21.5 -120.832 64.5 -164.499s96.833 -65.5 161.5 -65.5c45.333 0 85.333 11.667 120 35l10 -1c-0.666992 -0.666992 -4 -5.33398 -10 -14.001s-11.333 -16 -16 -22c-48.667 -68 -115 -151 -199 -249h250c78 95.333 127.667 160 149 194
c67.333 98.667 101 193 101 283c0 86 -29.5 155.5 -88.5 208.5s-136.167 79.5 -231.5 79.5c-93.333 0 -168.5 -26 -225.5 -78s-85.5 -120.667 -85.5 -206zM900 -52.999c-104.667 0 -204.668 20.499 -300.001 61.499s-177.666 96.167 -246.999 165.5
s-124.5 151.833 -165.5 247.5s-61.5 195.834 -61.5 300.501c0 139.333 34.667 268.5 104 387.5s163.5 213.167 282.5 282.5s248.167 104 387.5 104c104.667 0 204.834 -20.5 300.501 -61.5s178.167 -96.167 247.5 -165.5s124.5 -151.666 165.5 -246.999
s61.5 -195.333 61.5 -300s-20.5 -204.834 -61.5 -300.501s-96.167 -178.167 -165.5 -247.5s-151.833 -124.5 -247.5 -165.5s-195.834 -61.5 -300.501 -61.5z" />
    <glyph glyph-name="uni1F130" unicode="A&#x20de;" 
d="M824 678h153l-69 240h-15zM751 398h-197l226 693h241l225 -693h-196l-40 135h-220zM413 1472h975c72 0 133.333 -25 184 -75s76 -110.667 76 -182v-986c0 -71.333 -25.333 -132 -76 -182s-112 -75 -184 -75h-975c-72 0 -133.5 25.167 -184.5 75.5
s-76.5 110.833 -76.5 181.5v986c0 70.667 25.5 131.167 76.5 181.5s112.5 75.5 184.5 75.5zM1468 1174c0 35.333 -12.833 65.333 -38.5 90s-57.167 37 -94.5 37h-870c-36.667 0 -68 -12.167 -94 -36.5s-39 -54.5 -39 -90.5v-904c0 -34.667 13.167 -64.5 39.5 -89.5
s57.5 -37.5 93.5 -37.5h870c36.667 0 68 12.5 94 37.5s39 54.833 39 89.5v904z" />
    <glyph glyph-name="uni1F131" unicode="B&#x20de;" 
d="M631 382v692h343c66.667 0 119.334 -15.167 158.001 -45.5s58 -71.833 58 -124.5c0 -39.333 -12 -72.333 -36 -99s-56 -43.667 -96 -51v-9c50 -5.33301 89.667 -23 119 -53s44 -69.667 44 -119c0 -57.333 -22.333 -103.5 -67 -138.5s-102.334 -52.5 -173.001 -52.5h-350z
M817 944v-148.001h79c72.667 0 109 25.333 109 76c0 22.667 -8 40.334 -24 53.001s-37.667 19 -65 19h-99zM817 682.999v-164h87c81.333 0 122 27.333 122 82c0 25.333 -9.16699 45.333 -27.5 60s-43.833 22 -76.5 22h-105zM413 1472h975c72 0 133.333 -25 184 -75
s76 -110.667 76 -182v-986c0 -71.333 -25.333 -132 -76 -182s-112 -75 -184 -75h-975c-72 0 -133.5 25.167 -184.5 75.5s-76.5 110.833 -76.5 181.5v986c0 70.667 25.5 131.167 76.5 181.5s112.5 75.5 184.5 75.5zM1468 1174c0 35.333 -12.833 65.333 -38.5 90
s-57.167 37 -94.5 37h-870c-36.667 0 -68 -12.167 -94 -36.5s-39 -54.5 -39 -90.5v-904c0 -34.667 13.167 -64.5 39.5 -89.5s57.5 -37.5 93.5 -37.5h870c36.667 0 68 12.5 94 37.5s39 54.833 39 89.5v904z" />
    <glyph glyph-name="uni1F132" unicode="C&#x20de;" 
d="M1030 636l186 0.000976562c-6 -79.333 -37.833 -143.5 -95.5 -192.5s-131.167 -73.5 -220.5 -73.5c-98.667 0 -179.667 32.167 -243 96.5s-95 151.166 -95 260.499s31.5 196.333 94.5 261s144.167 97 243.5 97c90.667 0 164.834 -24.833 222.501 -74.5
s89.167 -114.5 94.5 -194.5h-185c-2.66699 30 -16.167 54.833 -40.5 74.5s-53.833 29.5 -88.5 29.5c-43.333 0 -78 -17.167 -104 -51.5s-39 -81.5 -39 -141.5s13 -107 39 -141s60.667 -51 104 -51c33.333 0 62.166 9.66699 86.499 29s37.833 43.333 40.5 72zM413 1472h975
c72 0 133.333 -25 184 -75s76 -110.667 76 -182v-986c0 -71.333 -25.333 -132 -76 -182s-112 -75 -184 -75h-975c-72 0 -133.5 25.167 -184.5 75.5s-76.5 110.833 -76.5 181.5v986c0 70.667 25.5 131.167 76.5 181.5s112.5 75.5 184.5 75.5zM1468 1174
c0 35.333 -12.833 65.333 -38.5 90s-57.167 37 -94.5 37h-870c-36.667 0 -68 -12.167 -94 -36.5s-39 -54.5 -39 -90.5v-904c0 -34.667 13.167 -64.5 39.5 -89.5s57.5 -37.5 93.5 -37.5h870c36.667 0 68 12.5 94 37.5s39 54.833 39 89.5v904z" />
    <glyph glyph-name="uni1F133" unicode="D&#x20de;" 
d="M618 1074h297.999c106.667 0 187.334 -29.667 242.001 -89s82 -145 82 -257s-27.5 -197.667 -82.5 -257s-135.5 -89 -241.5 -89h-298v692zM809.999 918v-379.999h75c53.333 0 92.333 15.167 117 45.5s37 78.166 37 143.499c0 66 -12.333 114.333 -37 145
s-63.667 46 -117 46h-75zM412.999 1472h975c72 0 133.333 -25 184 -75s76 -110.667 76 -182v-986c0 -71.333 -25.333 -132 -76 -182s-112 -75 -184 -75h-975c-72 0 -133.5 25.167 -184.5 75.5s-76.5 110.833 -76.5 181.5v986c0 70.667 25.5 131.167 76.5 181.5
s112.5 75.5 184.5 75.5zM1468 1174c0 35.333 -12.833 65.333 -38.5 90s-57.167 37 -94.5 37h-870c-36.667 0 -68 -12.167 -94 -36.5s-39 -54.5 -39 -90.5v-904c0 -34.667 13.167 -64.5 39.5 -89.5s57.5 -37.5 93.5 -37.5h870c36.667 0 68 12.5 94 37.5s39 54.833 39 89.5
v904z" />
    <glyph glyph-name="uni1F134" unicode="E&#x20de;" 
d="M1158 536v-154h-495v692h495v-154h-306v-123h287v-133h-287v-128h306zM413 1472h975c72 0 133.333 -25 184 -75s76 -110.667 76 -182v-986c0 -71.333 -25.333 -132 -76 -182s-112 -75 -184 -75h-975c-72 0 -133.5 25.167 -184.5 75.5s-76.5 110.833 -76.5 181.5v986
c0 70.667 25.5 131.167 76.5 181.5s112.5 75.5 184.5 75.5zM1468 1174c0 35.333 -12.833 65.333 -38.5 90s-57.167 37 -94.5 37h-870c-36.667 0 -68 -12.167 -94 -36.5s-39 -54.5 -39 -90.5v-904c0 -34.667 13.167 -64.5 39.5 -89.5s57.5 -37.5 93.5 -37.5h870
c36.667 0 68 12.5 94 37.5s39 54.833 39 89.5v904z" />
    <glyph glyph-name="uni1F135" unicode="F&#x20de;" 
d="M878 382h-198v692h493v-156h-295v-133h268v-156h-268v-247zM413 1472h975c72 0 133.333 -25 184 -75s76 -110.667 76 -182v-986c0 -71.333 -25.333 -132 -76 -182s-112 -75 -184 -75h-975c-72 0 -133.5 25.167 -184.5 75.5s-76.5 110.833 -76.5 181.5v986
c0 70.667 25.5 131.167 76.5 181.5s112.5 75.5 184.5 75.5zM1468 1174c0 35.333 -12.833 65.333 -38.5 90s-57.167 37 -94.5 37h-870c-36.667 0 -68 -12.167 -94 -36.5s-39 -54.5 -39 -90.5v-904c0 -34.667 13.167 -64.5 39.5 -89.5s57.5 -37.5 93.5 -37.5h870
c36.667 0 68 12.5 94 37.5s39 54.833 39 89.5v904z" />
    <glyph glyph-name="uni1F136" unicode="G&#x20de;" 
d="M1033 613l-0.00292969 27.999h-127v125h309v-121c0 -80 -28.167 -145.833 -84.5 -197.5s-132.833 -77.5 -229.5 -77.5c-101.333 0 -183.166 32.833 -245.499 98.5s-93.5 151.834 -93.5 258.501s31.167 193 93.5 259s144.166 99 245.499 99c85.333 0 157 -22.333 215 -67
s91.667 -104 101 -178h-190c-3.33301 27.333 -16.333 49.333 -39 66s-50.667 25 -84 25c-43.333 0 -78.166 -18.5 -104.499 -55.5s-39.5 -86.5 -39.5 -148.5s13.333 -112.167 40 -150.5s61.334 -57.5 104.001 -57.5c40.667 0 72.334 8.66699 95.001 26s34 40 34 68z
M412.997 1472h975c72 0 133.333 -25 184 -75s76 -110.667 76 -182v-986c0 -71.333 -25.333 -132 -76 -182s-112 -75 -184 -75h-975c-72 0 -133.5 25.167 -184.5 75.5s-76.5 110.833 -76.5 181.5v986c0 70.667 25.5 131.167 76.5 181.5s112.5 75.5 184.5 75.5zM1468 1174
c0 35.333 -12.833 65.333 -38.5 90s-57.167 37 -94.5 37h-870c-36.667 0 -68 -12.167 -94 -36.5s-39 -54.5 -39 -90.5v-904c0 -34.667 13.167 -64.5 39.5 -89.5s57.5 -37.5 93.5 -37.5h870c36.667 0 68 12.5 94 37.5s39 54.833 39 89.5v904z" />
    <glyph glyph-name="uni1F137" unicode="H&#x20de;" 
d="M1210 382h-187v265h-245v-265h-187v692h187v-263h245v263h187v-692zM413 1472h975c72 0 133.333 -25 184 -75s76 -110.667 76 -182v-986c0 -71.333 -25.333 -132 -76 -182s-112 -75 -184 -75h-975c-72 0 -133.5 25.167 -184.5 75.5s-76.5 110.833 -76.5 181.5v986
c0 70.667 25.5 131.167 76.5 181.5s112.5 75.5 184.5 75.5zM1468 1174c0 35.333 -12.833 65.333 -38.5 90s-57.167 37 -94.5 37h-870c-36.667 0 -68 -12.167 -94 -36.5s-39 -54.5 -39 -90.5v-904c0 -34.667 13.167 -64.5 39.5 -89.5s57.5 -37.5 93.5 -37.5h870
c36.667 0 68 12.5 94 37.5s39 54.833 39 89.5v904z" />
    <glyph glyph-name="uni1F138" unicode="I&#x20de;" 
d="M1007 382h-214v692h214v-692zM413 1472h975c72 0 133.333 -25 184 -75s76 -110.667 76 -182v-986c0 -71.333 -25.333 -132 -76 -182s-112 -75 -184 -75h-975c-72 0 -133.5 25.167 -184.5 75.5s-76.5 110.833 -76.5 181.5v986c0 70.667 25.5 131.167 76.5 181.5
s112.5 75.5 184.5 75.5zM1468 1174c0 35.333 -12.833 65.333 -38.5 90s-57.167 37 -94.5 37h-870c-36.667 0 -68 -12.167 -94 -36.5s-39 -54.5 -39 -90.5v-904c0 -34.667 13.167 -64.5 39.5 -89.5s57.5 -37.5 93.5 -37.5h870c36.667 0 68 12.5 94 37.5s39 54.833 39 89.5
v904z" />
    <glyph glyph-name="uni1F139" unicode="J&#x20de;" 
d="M602 621l194 -0.000976562c0 -26 6.5 -45.833 19.5 -59.5s31.167 -20.5 54.5 -20.5c48.667 0 73 29.667 73 89v433h201v-437c0 -83.333 -24 -148.666 -72 -195.999s-114 -71 -198 -71s-150.333 24 -199 72s-73 111.333 -73 190zM413 1472h975c72 0 133.333 -25 184 -75
s76 -110.667 76 -182v-986c0 -71.333 -25.333 -132 -76 -182s-112 -75 -184 -75h-975c-72 0 -133.5 25.167 -184.5 75.5s-76.5 110.833 -76.5 181.5v986c0 70.667 25.5 131.167 76.5 181.5s112.5 75.5 184.5 75.5zM1468 1174c0 35.333 -12.833 65.333 -38.5 90
s-57.167 37 -94.5 37h-870c-36.667 0 -68 -12.167 -94 -36.5s-39 -54.5 -39 -90.5v-904c0 -34.667 13.167 -64.5 39.5 -89.5s57.5 -37.5 93.5 -37.5h870c36.667 0 68 12.5 94 37.5s39 54.833 39 89.5v904z" />
    <glyph glyph-name="uni1F13A" unicode="K&#x20de;" 
d="M1234 1074l-229 -314l235 -378h-225l-158 254l-64 -74v-180h-182v692h182v-274h14l214 274h213zM413 1472h975c72 0 133.333 -25 184 -75s76 -110.667 76 -182v-986c0 -71.333 -25.333 -132 -76 -182s-112 -75 -184 -75h-975c-72 0 -133.5 25.167 -184.5 75.5
s-76.5 110.833 -76.5 181.5v986c0 70.667 25.5 131.167 76.5 181.5s112.5 75.5 184.5 75.5zM1468 1174c0 35.333 -12.833 65.333 -38.5 90s-57.167 37 -94.5 37h-870c-36.667 0 -68 -12.167 -94 -36.5s-39 -54.5 -39 -90.5v-904c0 -34.667 13.167 -64.5 39.5 -89.5
s57.5 -37.5 93.5 -37.5h870c36.667 0 68 12.5 94 37.5s39 54.833 39 89.5v904z" />
    <glyph glyph-name="uni1F13B" unicode="L&#x20de;" 
d="M1187 563v-170h-488v692h204v-522h284zM413 1472h975c72 0 133.333 -25 184 -75s76 -110.667 76 -182v-986c0 -71.333 -25.333 -132 -76 -182s-112 -75 -184 -75h-975c-72 0 -133.5 25.167 -184.5 75.5s-76.5 110.833 -76.5 181.5v986c0 70.667 25.5 131.167 76.5 181.5
s112.5 75.5 184.5 75.5zM1468 1174c0 35.333 -12.833 65.333 -38.5 90s-57.167 37 -94.5 37h-870c-36.667 0 -68 -12.167 -94 -36.5s-39 -54.5 -39 -90.5v-904c0 -34.667 13.167 -64.5 39.5 -89.5s57.5 -37.5 93.5 -37.5h870c36.667 0 68 12.5 94 37.5s39 54.833 39 89.5
v904z" />
    <glyph glyph-name="uni1F13C" unicode="M&#x20de;" 
d="M698 382h-151v692h190l162 -448h5l162 448h189v-692h-152v420h-15l-140 -381h-96l-139 381h-15v-420zM413 1472h975c72 0 133.333 -25 184 -75s76 -110.667 76 -182v-986c0 -71.333 -25.333 -132 -76 -182s-112 -75 -184 -75h-975c-72 0 -133.5 25.167 -184.5 75.5
s-76.5 110.833 -76.5 181.5v986c0 70.667 25.5 131.167 76.5 181.5s112.5 75.5 184.5 75.5zM1468 1174c0 35.333 -12.833 65.333 -38.5 90s-57.167 37 -94.5 37h-870c-36.667 0 -68 -12.167 -94 -36.5s-39 -54.5 -39 -90.5v-904c0 -34.667 13.167 -64.5 39.5 -89.5
s57.5 -37.5 93.5 -37.5h870c36.667 0 68 12.5 94 37.5s39 54.833 39 89.5v904z" />
    <glyph glyph-name="uni1F13D" unicode="N&#x20de;" 
d="M769 382h-171v692h144l276 -379h14v379h170v-692h-142l-278 384h-13v-384zM413 1472h975c72 0 133.333 -25 184 -75s76 -110.667 76 -182v-986c0 -71.333 -25.333 -132 -76 -182s-112 -75 -184 -75h-975c-72 0 -133.5 25.167 -184.5 75.5s-76.5 110.833 -76.5 181.5v986
c0 70.667 25.5 131.167 76.5 181.5s112.5 75.5 184.5 75.5zM1468 1174c0 35.333 -12.833 65.333 -38.5 90s-57.167 37 -94.5 37h-870c-36.667 0 -68 -12.167 -94 -36.5s-39 -54.5 -39 -90.5v-904c0 -34.667 13.167 -64.5 39.5 -89.5s57.5 -37.5 93.5 -37.5h870
c36.667 0 68 12.5 94 37.5s39 54.833 39 89.5v904z" />
    <glyph glyph-name="uni1F13E" unicode="O&#x20de;" 
d="M900 535c41.333 0 75.166 16.667 101.499 50s39.5 80.666 39.5 141.999c0 62 -13.167 109.667 -39.5 143s-60.166 50 -101.499 50s-75.166 -16.667 -101.499 -50s-39.5 -81 -39.5 -143c0 -61.333 13.167 -108.666 39.5 -141.999s60.166 -50 101.499 -50zM900 370
c-98 0 -179 31.833 -243 95.5s-96 150.834 -96 261.501c0 111.333 32 198.833 96 262.5s145 95.5 243 95.5s179 -31.833 243 -95.5s96 -151.167 96 -262.5c0 -110.667 -32 -197.834 -96 -261.501s-145 -95.5 -243 -95.5zM413 1472h975c72 0 133.333 -25 184 -75
s76 -110.667 76 -182v-986c0 -71.333 -25.333 -132 -76 -182s-112 -75 -184 -75h-975c-72 0 -133.5 25.167 -184.5 75.5s-76.5 110.833 -76.5 181.5v986c0 70.667 25.5 131.167 76.5 181.5s112.5 75.5 184.5 75.5zM1468 1174c0 35.333 -12.833 65.333 -38.5 90
s-57.167 37 -94.5 37h-870c-36.667 0 -68 -12.167 -94 -36.5s-39 -54.5 -39 -90.5v-904c0 -34.667 13.167 -64.5 39.5 -89.5s57.5 -37.5 93.5 -37.5h870c36.667 0 68 12.5 94 37.5s39 54.833 39 89.5v904z" />
    <glyph glyph-name="uni1F13F" unicode="P&#x20de;" 
d="M972 1074c78.667 0 141.333 -23.168 188 -69.501s70 -107.5 70 -183.5c0 -75.333 -23.333 -135.666 -70 -180.999s-110 -68 -190 -68h-111v-190h-202v692h315zM1035 820.999c0 66.667 -32.667 100 -98 100h-89v-199h89c65.333 0 98 33 98 99zM412.999 1472h975
c72 0 133.333 -25 184 -75s76 -110.667 76 -182v-986c0 -71.333 -25.333 -132 -76 -182s-112 -75 -184 -75h-975c-72 0 -133.5 25.167 -184.5 75.5s-76.5 110.833 -76.5 181.5v986c0 70.667 25.5 131.167 76.5 181.5s112.5 75.5 184.5 75.5zM1468 1174
c0 35.333 -12.833 65.333 -38.5 90s-57.167 37 -94.5 37h-870c-36.667 0 -68 -12.167 -94 -36.5s-39 -54.5 -39 -90.5v-904c0 -34.667 13.167 -64.5 39.5 -89.5s57.5 -37.5 93.5 -37.5h870c36.667 0 68 12.5 94 37.5s39 54.833 39 89.5v904z" />
    <glyph glyph-name="uni1F140" unicode="Q&#x20de;" 
d="M1219 322l-190.001 -0.000976562l-35 60c-29.333 -8 -60.666 -12 -93.999 -12c-98 0 -179 31.833 -243 95.5s-96 150.834 -96 261.501c0 111.333 32 198.833 96 262.5s145 95.5 243 95.5s179 -31.833 243 -95.5s96 -151.167 96 -262.5c0 -118 -37 -209.667 -111 -275z
M899.999 534.999c12 0 22.332 1.33105 30.999 3.99805l-54 96h110l22 -27c21.333 30.667 32 70.334 32 119.001c0 62 -13.167 109.667 -39.5 143s-60.166 50 -101.499 50s-75.166 -16.667 -101.499 -50s-39.5 -81 -39.5 -143c0 -61.333 13.167 -108.666 39.5 -141.999
s60.166 -50 101.499 -50zM412.998 1472h975c72 0 133.333 -25 184 -75s76 -110.667 76 -182v-986c0 -71.333 -25.333 -132 -76 -182s-112 -75 -184 -75h-975c-72 0 -133.5 25.167 -184.5 75.5s-76.5 110.833 -76.5 181.5v986c0 70.667 25.5 131.167 76.5 181.5
s112.5 75.5 184.5 75.5zM1468 1174c0 35.333 -12.833 65.333 -38.5 90s-57.167 37 -94.5 37h-870c-36.667 0 -68 -12.167 -94 -36.5s-39 -54.5 -39 -90.5v-904c0 -34.667 13.167 -64.5 39.5 -89.5s57.5 -37.5 93.5 -37.5h870c36.667 0 68 12.5 94 37.5s39 54.833 39 89.5
v904z" />
    <glyph glyph-name="uni1F141" unicode="R&#x20de;" 
d="M936 1074c87.333 0 155.001 -19.668 203.001 -59.001s72 -94.666 72 -165.999c0 -47.333 -12.333 -88 -37 -122s-57.334 -57.667 -98.001 -71l149 -274h-208l-117 238h-93v-238h-183v692h312zM807.001 753.999l105 0.000976562c31.333 0 55.833 7.16699 73.5 21.5
s26.5 35.166 26.5 62.499c0 28 -8.66699 49.5 -26 64.5s-41.333 22.5 -72 22.5h-107v-171zM413.001 1472h975c72 0 133.333 -25 184 -75s76 -110.667 76 -182v-986c0 -71.333 -25.333 -132 -76 -182s-112 -75 -184 -75h-975c-72 0 -133.5 25.167 -184.5 75.5
s-76.5 110.833 -76.5 181.5v986c0 70.667 25.5 131.167 76.5 181.5s112.5 75.5 184.5 75.5zM1468 1174c0 35.333 -12.833 65.333 -38.5 90s-57.167 37 -94.5 37h-870c-36.667 0 -68 -12.167 -94 -36.5s-39 -54.5 -39 -90.5v-904c0 -34.667 13.167 -64.5 39.5 -89.5
s57.5 -37.5 93.5 -37.5h870c36.667 0 68 12.5 94 37.5s39 54.833 39 89.5v904z" />
    <glyph glyph-name="uni1F142" unicode="S&#x20de;" 
d="M601 585l190.002 -0.000976562c3.33301 -21.333 15.166 -38.166 35.499 -50.499s46.5 -18.5 78.5 -18.5c32.667 0 58.667 6.16699 78 18.5s29 28.833 29 49.5c0 16.667 -7.83301 29.667 -23.5 39s-44.167 17.666 -85.5 24.999l-90 16
c-64.667 10.667 -114 33.167 -148 67.5s-51 78.166 -51 131.499c0 66.667 26.167 120.334 78.5 161.001s121.833 61 208.5 61c81.333 0 148 -19 200 -57s80.333 -88.667 85 -152h-184c-3.33301 20.667 -13.833 36.834 -31.5 48.501s-40.834 17.5 -69.501 17.5
s-51.667 -5.83301 -69 -17.5s-26 -27.167 -26 -46.5c0 -30.667 33 -51 99 -61l97 -17c132 -22.667 198 -89 198 -199c0 -70.667 -27.333 -126.667 -82 -168s-128 -62 -220 -62c-89.333 0 -160.333 19 -213 57s-80.667 90.333 -84 157zM413.002 1472h975
c72 0 133.333 -25 184 -75s76 -110.667 76 -182v-986c0 -71.333 -25.333 -132 -76 -182s-112 -75 -184 -75h-975c-72 0 -133.5 25.167 -184.5 75.5s-76.5 110.833 -76.5 181.5v986c0 70.667 25.5 131.167 76.5 181.5s112.5 75.5 184.5 75.5zM1468 1174
c0 35.333 -12.833 65.333 -38.5 90s-57.167 37 -94.5 37h-870c-36.667 0 -68 -12.167 -94 -36.5s-39 -54.5 -39 -90.5v-904c0 -34.667 13.167 -64.5 39.5 -89.5s57.5 -37.5 93.5 -37.5h870c36.667 0 68 12.5 94 37.5s39 54.833 39 89.5v904z" />
    <glyph glyph-name="uni1F143" unicode="T&#x20de;" 
d="M1002 368h-204v526h-195v167h594v-167h-195v-526zM413 1472h975c72 0 133.333 -25 184 -75s76 -110.667 76 -182v-986c0 -71.333 -25.333 -132 -76 -182s-112 -75 -184 -75h-975c-72 0 -133.5 25.167 -184.5 75.5s-76.5 110.833 -76.5 181.5v986
c0 70.667 25.5 131.167 76.5 181.5s112.5 75.5 184.5 75.5zM1468 1174c0 35.333 -12.833 65.333 -38.5 90s-57.167 37 -94.5 37h-870c-36.667 0 -68 -12.167 -94 -36.5s-39 -54.5 -39 -90.5v-904c0 -34.667 13.167 -64.5 39.5 -89.5s57.5 -37.5 93.5 -37.5h870
c36.667 0 68 12.5 94 37.5s39 54.833 39 89.5v904z" />
    <glyph glyph-name="uni1F144" unicode="U&#x20de;" 
d="M900 521c34 0 61 9.33301 81 28s30 44 30 76v436h196v-454c0 -72.667 -28.167 -132.667 -84.5 -180s-130.5 -71 -222.5 -71c-91.333 0 -165.166 23.667 -221.499 71s-84.5 107.333 -84.5 180v454h195v-436c0 -32 10.167 -57.333 30.5 -76s47.166 -28 80.499 -28z
M413 1472h975c72 0 133.333 -25 184 -75s76 -110.667 76 -182v-986c0 -71.333 -25.333 -132 -76 -182s-112 -75 -184 -75h-975c-72 0 -133.5 25.167 -184.5 75.5s-76.5 110.833 -76.5 181.5v986c0 70.667 25.5 131.167 76.5 181.5s112.5 75.5 184.5 75.5zM1468 1174
c0 35.333 -12.833 65.333 -38.5 90s-57.167 37 -94.5 37h-870c-36.667 0 -68 -12.167 -94 -36.5s-39 -54.5 -39 -90.5v-904c0 -34.667 13.167 -64.5 39.5 -89.5s57.5 -37.5 93.5 -37.5h870c36.667 0 68 12.5 94 37.5s39 54.833 39 89.5v904z" />
    <glyph glyph-name="uni1F145" unicode="V&#x20de;" 
d="M767 363l-213 692h221l120 -496h11l120 496h220l-213 -692h-266zM413 1472h975c72 0 133.333 -25 184 -75s76 -110.667 76 -182v-986c0 -71.333 -25.333 -132 -76 -182s-112 -75 -184 -75h-975c-72 0 -133.5 25.167 -184.5 75.5s-76.5 110.833 -76.5 181.5v986
c0 70.667 25.5 131.167 76.5 181.5s112.5 75.5 184.5 75.5zM1468 1174c0 35.333 -12.833 65.333 -38.5 90s-57.167 37 -94.5 37h-870c-36.667 0 -68 -12.167 -94 -36.5s-39 -54.5 -39 -90.5v-904c0 -34.667 13.167 -64.5 39.5 -89.5s57.5 -37.5 93.5 -37.5h870
c36.667 0 68 12.5 94 37.5s39 54.833 39 89.5v904z" />
    <glyph glyph-name="uni1F146" unicode="W&#x20de;" 
d="M897 792l-104 -424h-169l-162 693h179l81 -462h9l101 462h137l101 -462h9l81 462h178l-161 -693h-169l-105 424h-6zM413 1472h975c72 0 133.333 -25 184 -75s76 -110.667 76 -182v-986c0 -71.333 -25.333 -132 -76 -182s-112 -75 -184 -75h-975
c-72 0 -133.5 25.167 -184.5 75.5s-76.5 110.833 -76.5 181.5v986c0 70.667 25.5 131.167 76.5 181.5s112.5 75.5 184.5 75.5zM1468 1174c0 35.333 -12.833 65.333 -38.5 90s-57.167 37 -94.5 37h-870c-36.667 0 -68 -12.167 -94 -36.5s-39 -54.5 -39 -90.5v-904
c0 -34.667 13.167 -64.5 39.5 -89.5s57.5 -37.5 93.5 -37.5h870c36.667 0 68 12.5 94 37.5s39 54.833 39 89.5v904z" />
    <glyph glyph-name="uni1F147" unicode="X&#x20de;" 
d="M1234 1074l-216 -346l215 -346h-212l-120 222h-10l-119 -222h-216l219 347l-218 345h222l117 -222h10l118 222h210zM413 1472h975c72 0 133.333 -25 184 -75s76 -110.667 76 -182v-986c0 -71.333 -25.333 -132 -76 -182s-112 -75 -184 -75h-975
c-72 0 -133.5 25.167 -184.5 75.5s-76.5 110.833 -76.5 181.5v986c0 70.667 25.5 131.167 76.5 181.5s112.5 75.5 184.5 75.5zM1468 1174c0 35.333 -12.833 65.333 -38.5 90s-57.167 37 -94.5 37h-870c-36.667 0 -68 -12.167 -94 -36.5s-39 -54.5 -39 -90.5v-904
c0 -34.667 13.167 -64.5 39.5 -89.5s57.5 -37.5 93.5 -37.5h870c36.667 0 68 12.5 94 37.5s39 54.833 39 89.5v904z" />
    <glyph glyph-name="uni1F148" unicode="Y&#x20de;" 
d="M1005 368h-209v224l-238 469h220l120 -274h6l120 274h218l-237 -468v-225zM413 1472h975c72 0 133.333 -25 184 -75s76 -110.667 76 -182v-986c0 -71.333 -25.333 -132 -76 -182s-112 -75 -184 -75h-975c-72 0 -133.5 25.167 -184.5 75.5s-76.5 110.833 -76.5 181.5v986
c0 70.667 25.5 131.167 76.5 181.5s112.5 75.5 184.5 75.5zM1468 1174c0 35.333 -12.833 65.333 -38.5 90s-57.167 37 -94.5 37h-870c-36.667 0 -68 -12.167 -94 -36.5s-39 -54.5 -39 -90.5v-904c0 -34.667 13.167 -64.5 39.5 -89.5s57.5 -37.5 93.5 -37.5h870
c36.667 0 68 12.5 94 37.5s39 54.833 39 89.5v904z" />
    <glyph glyph-name="uni1F149" unicode="Z&#x20de;" 
d="M627 382v130l298 391v10h-297v161h540v-130l-298 -391v-10h309v-161h-552zM413 1472h975c72 0 133.333 -25 184 -75s76 -110.667 76 -182v-986c0 -71.333 -25.333 -132 -76 -182s-112 -75 -184 -75h-975c-72 0 -133.5 25.167 -184.5 75.5s-76.5 110.833 -76.5 181.5v986
c0 70.667 25.5 131.167 76.5 181.5s112.5 75.5 184.5 75.5zM1468 1174c0 35.333 -12.833 65.333 -38.5 90s-57.167 37 -94.5 37h-870c-36.667 0 -68 -12.167 -94 -36.5s-39 -54.5 -39 -90.5v-904c0 -34.667 13.167 -64.5 39.5 -89.5s57.5 -37.5 93.5 -37.5h870
c36.667 0 68 12.5 94 37.5s39 54.833 39 89.5v904z" />
    <glyph glyph-name="uni1F150" unicode="A&#x20dd;&#x25cf;" 
d="M985 669h-169l79 282h10zM743 377l43 145h229l43 -145h220l-245 753h-265l-245 -753h220zM900 -53c-104.667 0 -204.668 20.499 -300.001 61.499s-177.666 96.167 -246.999 165.5s-124.5 151.833 -165.5 247.5s-61.5 195.834 -61.5 300.501
c0 139.333 34.667 268.5 104 387.5s163.5 213.167 282.5 282.5s248.167 104 387.5 104c104.667 0 204.834 -20.5 300.501 -61.5s178.167 -96.167 247.5 -165.5s124.5 -151.666 165.5 -246.999s61.5 -195.333 61.5 -300s-20.5 -204.834 -61.5 -300.501
s-96.167 -178.167 -165.5 -247.5s-151.833 -124.5 -247.5 -165.5s-195.834 -61.5 -300.501 -61.5z" />
    <glyph glyph-name="uni1F151" unicode="B&#x20dd;&#x25cf;" 
d="M601 352l379.999 0.000976562c78 0 141.5 19.333 190.5 58s73.5 89.334 73.5 152.001c0 51.333 -15.167 93.333 -45.5 126s-72.833 53 -127.5 61v4c42.667 9.33301 76.334 28.666 101.001 57.999s37 64.666 37 105.999c0 58 -21 103.667 -63 137s-99.667 50 -173 50h-373
v-752zM804.999 960.001h106.001c29.333 0 52.666 -7 69.999 -21s26 -33 26 -57c0 -53.333 -39 -80 -117 -80h-85v158zM804 678.001h113c36 0 63.833 -7.83301 83.5 -23.5s29.5 -37.167 29.5 -64.5c0 -58 -44 -87 -132 -87h-94v175zM900 -52.999
c-104.667 0 -204.668 20.499 -300.001 61.499s-177.666 96.167 -246.999 165.5s-124.5 151.833 -165.5 247.5s-61.5 195.834 -61.5 300.501c0 139.333 34.667 268.5 104 387.5s163.5 213.167 282.5 282.5s248.167 104 387.5 104c104.667 0 204.834 -20.5 300.501 -61.5
s178.167 -96.167 247.5 -165.5s124.5 -151.666 165.5 -246.999s61.5 -195.333 61.5 -300s-20.5 -204.834 -61.5 -300.501s-96.167 -178.167 -165.5 -247.5s-151.833 -124.5 -247.5 -165.5s-195.834 -61.5 -300.501 -61.5z" />
    <glyph glyph-name="uni1F152" unicode="C&#x20dd;&#x25cf;" 
d="M1037 626c-3.33301 -29.333 -17.667 -53.666 -43 -72.999s-55.333 -29 -90 -29c-45.333 0 -81.666 17.833 -108.999 53.5s-41 85.167 -41 148.5s13.667 112.833 41 148.5s63.666 53.5 108.999 53.5c35.333 0 65.833 -10.333 91.5 -31s40.167 -46 43.5 -76h206
c-5.33301 87.333 -39.5 158 -102.5 212s-143.5 81 -241.5 81c-107.333 0 -195.333 -35 -264 -105s-103 -164.333 -103 -283s34.167 -213 102.5 -283s156.5 -105 264.5 -105c96 0 175.5 26.667 238.5 80s97.833 122.666 104.5 207.999h-207zM899.999 -53
c-104.667 0 -204.668 20.499 -300.001 61.499s-177.666 96.167 -246.999 165.5s-124.5 151.833 -165.5 247.5s-61.5 195.834 -61.5 300.501c0 139.333 34.667 268.5 104 387.5s163.5 213.167 282.5 282.5s248.167 104 387.5 104c104.667 0 204.834 -20.5 300.501 -61.5
s178.167 -96.167 247.5 -165.5s124.5 -151.666 165.5 -246.999s61.5 -195.333 61.5 -300s-20.5 -204.834 -61.5 -300.501s-96.167 -178.167 -165.5 -247.5s-151.833 -124.5 -247.5 -165.5s-195.834 -61.5 -300.501 -61.5z" />
    <glyph glyph-name="uni1F153" unicode="D&#x20dd;&#x25cf;" 
d="M598 1104v-752h325c115.333 0 203 31.833 263 95.5s90 157.167 90 280.5s-30 216.833 -90 280.5s-147.667 95.5 -263 95.5h-325zM808 938h79c59.333 0 102.333 -16.667 129 -50s40 -87 40 -161c0 -73.333 -13.333 -126.5 -40 -159.5s-69.667 -49.5 -129 -49.5h-79v420z
M900 -53c-104.667 0 -204.668 20.499 -300.001 61.499s-177.666 96.167 -246.999 165.5s-124.5 151.833 -165.5 247.5s-61.5 195.834 -61.5 300.501c0 139.333 34.667 268.5 104 387.5s163.5 213.167 282.5 282.5s248.167 104 387.5 104
c104.667 0 204.834 -20.5 300.501 -61.5s178.167 -96.167 247.5 -165.5s124.5 -151.666 165.5 -246.999s61.5 -195.333 61.5 -300s-20.5 -204.834 -61.5 -300.501s-96.167 -178.167 -165.5 -247.5s-151.833 -124.5 -247.5 -165.5s-195.834 -61.5 -300.501 -61.5z" />
    <glyph glyph-name="uni1F154" unicode="E&#x20dd;&#x25cf;" 
d="M1179 513h-336v144h314v146h-314v139h336v162h-544v-752h544v161zM900 -53c-104.667 0 -204.668 20.499 -300.001 61.499s-177.666 96.167 -246.999 165.5s-124.5 151.833 -165.5 247.5s-61.5 195.834 -61.5 300.501c0 139.333 34.667 268.5 104 387.5
s163.5 213.167 282.5 282.5s248.167 104 387.5 104c104.667 0 204.834 -20.5 300.501 -61.5s178.167 -96.167 247.5 -165.5s124.5 -151.666 165.5 -246.999s61.5 -195.333 61.5 -300s-20.5 -204.834 -61.5 -300.501s-96.167 -178.167 -165.5 -247.5
s-151.833 -124.5 -247.5 -165.5s-195.834 -61.5 -300.501 -61.5z" />
    <glyph glyph-name="uni1F155" unicode="F&#x20dd;&#x25cf;" 
d="M873 352v266h290v172h-290v144h320v170h-540v-752h220zM900 -53c-104.667 0 -204.668 20.499 -300.001 61.499s-177.666 96.167 -246.999 165.5s-124.5 151.833 -165.5 247.5s-61.5 195.834 -61.5 300.501c0 139.333 34.667 268.5 104 387.5s163.5 213.167 282.5 282.5
s248.167 104 387.5 104c104.667 0 204.834 -20.5 300.501 -61.5s178.167 -96.167 247.5 -165.5s124.5 -151.666 165.5 -246.999s61.5 -195.333 61.5 -300s-20.5 -204.834 -61.5 -300.501s-96.167 -178.167 -165.5 -247.5s-151.833 -124.5 -247.5 -165.5
s-195.834 -61.5 -300.501 -61.5z" />
    <glyph glyph-name="uni1F156" unicode="G&#x20dd;&#x25cf;" 
d="M1039 615c0 -30.667 -11.833 -56 -35.5 -76s-56.5 -30 -98.5 -30c-45.333 0 -81.833 19.833 -109.5 59.5s-41.5 92.167 -41.5 157.5c0 64 13.833 115.167 41.5 153.5s64.167 57.5 109.5 57.5c36.667 0 66.334 -7.83301 89.001 -23.5s35.667 -36.167 39 -61.5h212
c-10.667 78.667 -47.334 142 -110.001 190s-140 72 -232 72c-110 0 -199 -35.667 -267 -107s-102 -165 -102 -281s33.833 -209.667 101.5 -281s156.5 -107 266.5 -107c102 0 184.333 29.167 247 87.5s94 130.833 94 217.5v132h-335v-146h131v-14zM900 -53
c-104.667 0 -204.668 20.499 -300.001 61.499s-177.666 96.167 -246.999 165.5s-124.5 151.833 -165.5 247.5s-61.5 195.834 -61.5 300.501c0 139.333 34.667 268.5 104 387.5s163.5 213.167 282.5 282.5s248.167 104 387.5 104c104.667 0 204.834 -20.5 300.501 -61.5
s178.167 -96.167 247.5 -165.5s124.5 -151.666 165.5 -246.999s61.5 -195.333 61.5 -300s-20.5 -204.834 -61.5 -300.501s-96.167 -178.167 -165.5 -247.5s-151.833 -124.5 -247.5 -165.5s-195.834 -61.5 -300.501 -61.5z" />
    <glyph glyph-name="uni1F157" unicode="H&#x20dd;&#x25cf;" 
d="M1237 352v752h-208v-283h-257v283h-208v-752h208v284h257v-284h208zM900 -53c-104.667 0 -204.668 20.499 -300.001 61.499s-177.666 96.167 -246.999 165.5s-124.5 151.833 -165.5 247.5s-61.5 195.834 -61.5 300.501c0 139.333 34.667 268.5 104 387.5
s163.5 213.167 282.5 282.5s248.167 104 387.5 104c104.667 0 204.834 -20.5 300.501 -61.5s178.167 -96.167 247.5 -165.5s124.5 -151.666 165.5 -246.999s61.5 -195.333 61.5 -300s-20.5 -204.834 -61.5 -300.501s-96.167 -178.167 -165.5 -247.5
s-151.833 -124.5 -247.5 -165.5s-195.834 -61.5 -300.501 -61.5z" />
    <glyph glyph-name="uni1F158" unicode="I&#x20dd;&#x25cf;" 
d="M1019 352v752h-237v-752h237zM900 -53c-104.667 0 -204.668 20.499 -300.001 61.499s-177.666 96.167 -246.999 165.5s-124.5 151.833 -165.5 247.5s-61.5 195.834 -61.5 300.501c0 139.333 34.667 268.5 104 387.5s163.5 213.167 282.5 282.5s248.167 104 387.5 104
c104.667 0 204.834 -20.5 300.501 -61.5s178.167 -96.167 247.5 -165.5s124.5 -151.666 165.5 -246.999s61.5 -195.333 61.5 -300s-20.5 -204.834 -61.5 -300.501s-96.167 -178.167 -165.5 -247.5s-151.833 -124.5 -247.5 -165.5s-195.834 -61.5 -300.501 -61.5z" />
    <glyph glyph-name="uni1F159" unicode="J&#x20dd;&#x25cf;" 
d="M573 617c0 -88 27 -158.168 81 -210.501s126.333 -78.5 217 -78.5c92 0 164.167 25.833 216.5 77.5s78.5 122.834 78.5 213.501v475h-224v-472c0 -60 -25.333 -90 -76 -90c-50 0 -75 28.333 -75 85h-218zM900 -53.001c-104.667 0 -204.668 20.499 -300.001 61.499
s-177.666 96.167 -246.999 165.5s-124.5 151.833 -165.5 247.5s-61.5 195.834 -61.5 300.501c0 139.333 34.667 268.5 104 387.5s163.5 213.167 282.5 282.5s248.167 104 387.5 104c104.667 0 204.834 -20.5 300.501 -61.5s178.167 -96.167 247.5 -165.5
s124.5 -151.666 165.5 -246.999s61.5 -195.333 61.5 -300s-20.5 -204.834 -61.5 -300.501s-96.167 -178.167 -165.5 -247.5s-151.833 -124.5 -247.5 -165.5s-195.834 -61.5 -300.501 -61.5z" />
    <glyph glyph-name="uni1F15A" unicode="K&#x20dd;&#x25cf;" 
d="M1262 1104h-239l-231 -293h-9v293h-203v-752h203v197l64 73l170 -270h251l-257 409zM900 -53c-104.667 0 -204.668 20.499 -300.001 61.499s-177.666 96.167 -246.999 165.5s-124.5 151.833 -165.5 247.5s-61.5 195.834 -61.5 300.501c0 139.333 34.667 268.5 104 387.5
s163.5 213.167 282.5 282.5s248.167 104 387.5 104c104.667 0 204.834 -20.5 300.501 -61.5s178.167 -96.167 247.5 -165.5s124.5 -151.666 165.5 -246.999s61.5 -195.333 61.5 -300s-20.5 -204.834 -61.5 -300.501s-96.167 -178.167 -165.5 -247.5
s-151.833 -124.5 -247.5 -165.5s-195.834 -61.5 -300.501 -61.5z" />
    <glyph glyph-name="uni1F15B" unicode="L&#x20dd;&#x25cf;" 
d="M1201 553h-307v562h-226v-752h533v190zM900 -53c-104.667 0 -204.668 20.499 -300.001 61.499s-177.666 96.167 -246.999 165.5s-124.5 151.833 -165.5 247.5s-61.5 195.834 -61.5 300.501c0 139.333 34.667 268.5 104 387.5s163.5 213.167 282.5 282.5
s248.167 104 387.5 104c104.667 0 204.834 -20.5 300.501 -61.5s178.167 -96.167 247.5 -165.5s124.5 -151.666 165.5 -246.999s61.5 -195.333 61.5 -300s-20.5 -204.834 -61.5 -300.501s-96.167 -178.167 -165.5 -247.5s-151.833 -124.5 -247.5 -165.5
s-195.834 -61.5 -300.501 -61.5z" />
    <glyph glyph-name="uni1F15C" unicode="M&#x20dd;&#x25cf;" 
d="M683 352v456h13l149 -412h109l151 410h13v-454h169v752h-208l-177 -485h-3l-176 485h-209v-752h169zM900 -53c-104.667 0 -204.668 20.499 -300.001 61.499s-177.666 96.167 -246.999 165.5s-124.5 151.833 -165.5 247.5s-61.5 195.834 -61.5 300.501
c0 139.333 34.667 268.5 104 387.5s163.5 213.167 282.5 282.5s248.167 104 387.5 104c104.667 0 204.834 -20.5 300.501 -61.5s178.167 -96.167 247.5 -165.5s124.5 -151.666 165.5 -246.999s61.5 -195.333 61.5 -300s-20.5 -204.834 -61.5 -300.501
s-96.167 -178.167 -165.5 -247.5s-151.833 -124.5 -247.5 -165.5s-195.834 -61.5 -300.501 -61.5z" />
    <glyph glyph-name="uni1F15D" unicode="N&#x20dd;&#x25cf;" 
d="M762 352v412h9l299 -412h160v752h-191v-408h-9l-299 408h-160v-752h191zM900 -53c-104.667 0 -204.668 20.499 -300.001 61.499s-177.666 96.167 -246.999 165.5s-124.5 151.833 -165.5 247.5s-61.5 195.834 -61.5 300.501c0 139.333 34.667 268.5 104 387.5
s163.5 213.167 282.5 282.5s248.167 104 387.5 104c104.667 0 204.834 -20.5 300.501 -61.5s178.167 -96.167 247.5 -165.5s124.5 -151.666 165.5 -246.999s61.5 -195.333 61.5 -300s-20.5 -204.834 -61.5 -300.501s-96.167 -178.167 -165.5 -247.5
s-151.833 -124.5 -247.5 -165.5s-195.834 -61.5 -300.501 -61.5z" />
    <glyph glyph-name="uni1F15E" unicode="O&#x20dd;&#x25cf;" 
d="M900 521c-43.333 0 -79.166 17.833 -107.499 53.5s-42.5 86.167 -42.5 151.5s14.167 115.833 42.5 151.5s64.166 53.5 107.499 53.5s79.166 -17.667 107.499 -53s42.5 -86 42.5 -152s-14.167 -116.667 -42.5 -152s-64.166 -53 -107.499 -53zM900 338
c107.333 0 195.666 34.5 264.999 103.5s104 163.833 104 284.5s-34.667 215.5 -104 284.5s-157.666 103.5 -264.999 103.5c-106.667 0 -194.667 -34.5 -264 -103.5s-104 -163.833 -104 -284.5s34.667 -215.5 104 -284.5s157.333 -103.5 264 -103.5zM900 -53
c-104.667 0 -204.668 20.499 -300.001 61.499s-177.666 96.167 -246.999 165.5s-124.5 151.833 -165.5 247.5s-61.5 195.834 -61.5 300.501c0 139.333 34.667 268.5 104 387.5s163.5 213.167 282.5 282.5s248.167 104 387.5 104c104.667 0 204.834 -20.5 300.501 -61.5
s178.167 -96.167 247.5 -165.5s124.5 -151.666 165.5 -246.999s61.5 -195.333 61.5 -300s-20.5 -204.834 -61.5 -300.501s-96.167 -178.167 -165.5 -247.5s-151.833 -124.5 -247.5 -165.5s-195.834 -61.5 -300.501 -61.5z" />
    <glyph glyph-name="uni1F15F" unicode="P&#x20dd;&#x25cf;" 
d="M971 1104h-344.002v-752h225v205h116c86.667 0 155.834 24.5 207.501 73.5s77.5 114.5 77.5 196.5c0 84 -25.667 151.167 -77 201.5s-119.666 75.5 -204.999 75.5zM1040 827c0 -34.667 -9.33301 -61.333 -28 -80s-45.334 -28 -80.001 -28h-96v218h96
c34.667 0 61.334 -9.5 80.001 -28.5s28 -46.167 28 -81.5zM899.998 -52.999c-104.667 0 -204.668 20.499 -300.001 61.499s-177.666 96.167 -246.999 165.5s-124.5 151.833 -165.5 247.5s-61.5 195.834 -61.5 300.501c0 139.333 34.667 268.5 104 387.5
s163.5 213.167 282.5 282.5s248.167 104 387.5 104c104.667 0 204.834 -20.5 300.501 -61.5s178.167 -96.167 247.5 -165.5s124.5 -151.666 165.5 -246.999s61.5 -195.333 61.5 -300s-20.5 -204.834 -61.5 -300.501s-96.167 -178.167 -165.5 -247.5
s-151.833 -124.5 -247.5 -165.5s-195.834 -61.5 -300.501 -61.5z" />
    <glyph glyph-name="uni1F160" unicode="Q&#x20dd;&#x25cf;" 
d="M1251 288l-100.001 142c78.667 71.333 118 170 118 296c0 120.667 -34.667 215.5 -104 284.5s-157.666 103.5 -264.999 103.5c-106.667 0 -194.667 -34.5 -264 -103.5s-104 -163.833 -104 -284.5s34.667 -215.5 104 -284.5s157.333 -103.5 264 -103.5
c37.333 0 71.333 4.33301 102 13l35 -63h214zM899.999 521c-43.333 0 -79.166 17.832 -107.499 53.499s-42.5 86.167 -42.5 151.5s14.167 115.833 42.5 151.5s64.166 53.5 107.499 53.5s79.166 -17.667 107.499 -53s42.5 -86 42.5 -152
c0 -49.333 -10.667 -90.666 -32 -123.999l-23 28h-126l59 -106c-9.33301 -2 -18.666 -3 -27.999 -3zM899.999 -53.001c-104.667 0 -204.668 20.499 -300.001 61.499s-177.666 96.167 -246.999 165.5s-124.5 151.833 -165.5 247.5s-61.5 195.834 -61.5 300.501
c0 139.333 34.667 268.5 104 387.5s163.5 213.167 282.5 282.5s248.167 104 387.5 104c104.667 0 204.834 -20.5 300.501 -61.5s178.167 -96.167 247.5 -165.5s124.5 -151.666 165.5 -246.999s61.5 -195.333 61.5 -300s-20.5 -204.834 -61.5 -300.501
s-96.167 -178.167 -165.5 -247.5s-151.833 -124.5 -247.5 -165.5s-195.834 -61.5 -300.501 -61.5z" />
    <glyph glyph-name="uni1F161" unicode="R&#x20dd;&#x25cf;" 
d="M792 754v186h118c34.667 0 61.167 -8 79.5 -24s27.5 -39.333 27.5 -70c0 -28.667 -9.66699 -51.167 -29 -67.5s-46 -24.5 -80 -24.5h-116zM933 1104l-340.001 -0.00292969v-752h205v256h95l125 -256h234l-162 295c45.333 16.667 80.5 43.334 105.5 80.001
s37.5 80.334 37.5 131.001c0 78.667 -26.167 139.334 -78.5 182.001s-126.166 64 -221.499 64zM899.999 -53.0029c-104.667 0 -204.668 20.499 -300.001 61.499s-177.666 96.167 -246.999 165.5s-124.5 151.833 -165.5 247.5s-61.5 195.834 -61.5 300.501
c0 139.333 34.667 268.5 104 387.5s163.5 213.167 282.5 282.5s248.167 104 387.5 104c104.667 0 204.834 -20.5 300.501 -61.5s178.167 -96.167 247.5 -165.5s124.5 -151.666 165.5 -246.999s61.5 -195.333 61.5 -300s-20.5 -204.834 -61.5 -300.501
s-96.167 -178.167 -165.5 -247.5s-151.833 -124.5 -247.5 -165.5s-195.834 -61.5 -300.501 -61.5z" />
    <glyph glyph-name="uni1F162" unicode="S&#x20dd;&#x25cf;" 
d="M574 577c3.33301 -73.333 33.832 -131.001 91.499 -173.001s135.167 -63 232.5 -63c100 0 179.833 22.667 239.5 68s89.5 106 89.5 182c0 121.333 -72.333 194 -217 218l-105 18c-37.333 6 -64.166 14.167 -80.499 24.5s-24.5 23.833 -24.5 40.5
c0 20.667 9.16699 37 27.5 49s42.833 18 73.5 18c30 0 54.5 -6.33301 73.5 -19s30.167 -30 33.5 -52h203c-4.66699 69.333 -35.167 124.833 -91.5 166.5s-129.166 62.5 -218.499 62.5c-94 0 -169.667 -22.167 -227 -66.5s-86 -102.833 -86 -175.5
c0 -58.667 18.667 -106.5 56 -143.5s91 -61.5 161 -73.5l98 -18c43.333 -7.33301 73.333 -15.833 90 -25.5s25 -23.5 25 -41.5c0 -21.333 -10.167 -38.5 -30.5 -51.5s-47.833 -19.5 -82.5 -19.5c-34 0 -61.833 6.83301 -83.5 20.5s-33.834 31.834 -36.501 54.501h-211z
M899.999 -53.001c-104.667 0 -204.668 20.499 -300.001 61.499s-177.666 96.167 -246.999 165.5s-124.5 151.833 -165.5 247.5s-61.5 195.834 -61.5 300.501c0 139.333 34.667 268.5 104 387.5s163.5 213.167 282.5 282.5s248.167 104 387.5 104
c104.667 0 204.834 -20.5 300.501 -61.5s178.167 -96.167 247.5 -165.5s124.5 -151.666 165.5 -246.999s61.5 -195.333 61.5 -300s-20.5 -204.834 -61.5 -300.501s-96.167 -178.167 -165.5 -247.5s-151.833 -124.5 -247.5 -165.5s-195.834 -61.5 -300.501 -61.5z" />
    <glyph glyph-name="uni1F163" unicode="T&#x20dd;&#x25cf;" 
d="M1013 329v567h211v185h-647v-185h211v-567h225zM900 -53c-104.667 0 -204.668 20.499 -300.001 61.499s-177.666 96.167 -246.999 165.5s-124.5 151.833 -165.5 247.5s-61.5 195.834 -61.5 300.501c0 139.333 34.667 268.5 104 387.5s163.5 213.167 282.5 282.5
s248.167 104 387.5 104c104.667 0 204.834 -20.5 300.501 -61.5s178.167 -96.167 247.5 -165.5s124.5 -151.666 165.5 -246.999s61.5 -195.333 61.5 -300s-20.5 -204.834 -61.5 -300.501s-96.167 -178.167 -165.5 -247.5s-151.833 -124.5 -247.5 -165.5
s-195.834 -61.5 -300.501 -61.5z" />
    <glyph glyph-name="uni1F164" unicode="U&#x20dd;&#x25cf;" 
d="M900 501c-35.333 0 -63.333 9.66797 -84 29.001s-31 45.666 -31 78.999v473h-219v-504c0 -78.667 30.5 -141.834 91.5 -189.501s141.833 -71.5 242.5 -71.5s181.667 24 243 72s92 111 92 189v504h-219v-473c0 -33.333 -10.5 -59.666 -31.5 -78.999s-49.167 -29 -84.5 -29
zM900 -52.999c-104.667 0 -204.668 20.499 -300.001 61.499s-177.666 96.167 -246.999 165.5s-124.5 151.833 -165.5 247.5s-61.5 195.834 -61.5 300.501c0 139.333 34.667 268.5 104 387.5s163.5 213.167 282.5 282.5s248.167 104 387.5 104
c104.667 0 204.834 -20.5 300.501 -61.5s178.167 -96.167 247.5 -165.5s124.5 -151.666 165.5 -246.999s61.5 -195.333 61.5 -300s-20.5 -204.834 -61.5 -300.501s-96.167 -178.167 -165.5 -247.5s-151.833 -124.5 -247.5 -165.5s-195.834 -61.5 -300.501 -61.5z" />
    <glyph glyph-name="uni1F165" unicode="V&#x20dd;&#x25cf;" 
d="M1044 324l232 752h-242l-128 -537h-11l-128 537h-243l233 -752h287zM900 -53c-104.667 0 -204.668 20.499 -300.001 61.499s-177.666 96.167 -246.999 165.5s-124.5 151.833 -165.5 247.5s-61.5 195.834 -61.5 300.501c0 139.333 34.667 268.5 104 387.5
s163.5 213.167 282.5 282.5s248.167 104 387.5 104c104.667 0 204.834 -20.5 300.501 -61.5s178.167 -96.167 247.5 -165.5s124.5 -151.666 165.5 -246.999s61.5 -195.333 61.5 -300s-20.5 -204.834 -61.5 -300.501s-96.167 -178.167 -165.5 -247.5
s-151.833 -124.5 -247.5 -165.5s-195.834 -61.5 -300.501 -61.5z" />
    <glyph glyph-name="uni1F166" unicode="W&#x20dd;&#x25cf;" 
d="M899 783h3l112 -454h189l177 752h-202l-85 -497h-5l-109 497h-157l-109 -497h-5l-85 497h-202l178 -752h188zM900 -53c-104.667 0 -204.668 20.499 -300.001 61.499s-177.666 96.167 -246.999 165.5s-124.5 151.833 -165.5 247.5s-61.5 195.834 -61.5 300.501
c0 139.333 34.667 268.5 104 387.5s163.5 213.167 282.5 282.5s248.167 104 387.5 104c104.667 0 204.834 -20.5 300.501 -61.5s178.167 -96.167 247.5 -165.5s124.5 -151.666 165.5 -246.999s61.5 -195.333 61.5 -300s-20.5 -204.834 -61.5 -300.501
s-96.167 -178.167 -165.5 -247.5s-151.833 -124.5 -247.5 -165.5s-195.834 -61.5 -300.501 -61.5z" />
    <glyph glyph-name="uni1F167" unicode="X&#x20dd;&#x25cf;" 
d="M1266 1104h-233l-125 -240h-10l-126 240h-246l236 -374l-237 -378h239l128 239h9l129 -239h234l-233 375zM900 -53c-104.667 0 -204.668 20.499 -300.001 61.499s-177.666 96.167 -246.999 165.5s-124.5 151.833 -165.5 247.5s-61.5 195.834 -61.5 300.501
c0 139.333 34.667 268.5 104 387.5s163.5 213.167 282.5 282.5s248.167 104 387.5 104c104.667 0 204.834 -20.5 300.501 -61.5s178.167 -96.167 247.5 -165.5s124.5 -151.666 165.5 -246.999s61.5 -195.333 61.5 -300s-20.5 -204.834 -61.5 -300.501
s-96.167 -178.167 -165.5 -247.5s-151.833 -124.5 -247.5 -165.5s-195.834 -61.5 -300.501 -61.5z" />
    <glyph glyph-name="uni1F168" unicode="Y&#x20dd;&#x25cf;" 
d="M784 336h233v245l260 507h-245l-130 -294h-4l-129 294h-245l260 -507v-245zM900 -53c-104.667 0 -204.668 20.499 -300.001 61.499s-177.666 96.167 -246.999 165.5s-124.5 151.833 -165.5 247.5s-61.5 195.834 -61.5 300.501c0 139.333 34.667 268.5 104 387.5
s163.5 213.167 282.5 282.5s248.167 104 387.5 104c104.667 0 204.834 -20.5 300.501 -61.5s178.167 -96.167 247.5 -165.5s124.5 -151.666 165.5 -246.999s61.5 -195.333 61.5 -300s-20.5 -204.834 -61.5 -300.501s-96.167 -178.167 -165.5 -247.5
s-151.833 -124.5 -247.5 -165.5s-195.834 -61.5 -300.501 -61.5z" />
    <glyph glyph-name="uni1F169" unicode="Z&#x20dd;&#x25cf;" 
d="M602 352h602v181h-328v5l317 422v144h-590v-182h316v-3l-317 -423v-144zM900 -53c-104.667 0 -204.668 20.499 -300.001 61.499s-177.666 96.167 -246.999 165.5s-124.5 151.833 -165.5 247.5s-61.5 195.834 -61.5 300.501c0 139.333 34.667 268.5 104 387.5
s163.5 213.167 282.5 282.5s248.167 104 387.5 104c104.667 0 204.834 -20.5 300.501 -61.5s178.167 -96.167 247.5 -165.5s124.5 -151.666 165.5 -246.999s61.5 -195.333 61.5 -300s-20.5 -204.834 -61.5 -300.501s-96.167 -178.167 -165.5 -247.5
s-151.833 -124.5 -247.5 -165.5s-195.834 -61.5 -300.501 -61.5z" />
    <glyph glyph-name="uni1F170" unicode="A&#x20de;&#x25a0;" 
d="M985 660h-169l79 282h10zM743 368l43 145h229l43 -145h220l-245 753h-265l-245 -753h220zM413 1472h975c72 0 133.333 -25 184 -75s76 -110.667 76 -182v-986c0 -71.333 -25.333 -132 -76 -182s-112 -75 -184 -75h-975c-72 0 -133.5 25.167 -184.5 75.5
s-76.5 110.833 -76.5 181.5v986c0 70.667 25.5 131.167 76.5 181.5s112.5 75.5 184.5 75.5z" />
    <glyph glyph-name="uni1F171" unicode="B&#x20de;&#x25a0;" 
d="M601 352l380.001 -0.00195312c77.333 0 140.666 19.333 189.999 58s74 89.334 74 152.001c0 52 -15.5 94.333 -46.5 127s-73.167 52.667 -126.5 60v4c42 9.33301 75.5 28.333 100.5 57s37.5 64.334 37.5 107.001c0 58.667 -21 104.5 -63 137.5s-99.667 49.5 -173 49.5
h-373v-752zM805.001 959.998h106c30 0 53.5 -7 70.5 -21s25.5 -33 25.5 -57c0 -53.333 -39 -80 -117 -80h-85v158zM804.001 677.998h113c36 0 63.833 -7.66699 83.5 -23s29.5 -37 29.5 -65c0 -58 -44 -87 -132 -87h-94v175zM413.001 1472h975c72 0 133.333 -25 184 -75
s76 -110.667 76 -182v-986c0 -71.333 -25.333 -132 -76 -182s-112 -75 -184 -75h-975c-72 0 -133.5 25.167 -184.5 75.5s-76.5 110.833 -76.5 181.5v986c0 70.667 25.5 131.167 76.5 181.5s112.5 75.5 184.5 75.5z" />
    <glyph glyph-name="uni1F172" unicode="C&#x20de;&#x25a0;" 
d="M1037 626c-3.33301 -29.333 -17.667 -53.666 -43 -72.999s-55.333 -29 -90 -29c-45.333 0 -81.666 17.833 -108.999 53.5s-41 85.167 -41 148.5s13.667 112.833 41 148.5s63.666 53.5 108.999 53.5c35.333 0 65.833 -10.333 91.5 -31s40.167 -46 43.5 -76h206
c-5.33301 87.333 -39.5 158 -102.5 212s-143.5 81 -241.5 81c-107.333 0 -195.333 -35 -264 -105s-103 -164.333 -103 -283s34.167 -213 102.5 -283s156.5 -105 264.5 -105c96 0 175.5 26.667 238.5 80s97.833 122.666 104.5 207.999h-207zM412.999 1472h975
c72 0 133.333 -25 184 -75s76 -110.667 76 -182v-986c0 -71.333 -25.333 -132 -76 -182s-112 -75 -184 -75h-975c-72 0 -133.5 25.167 -184.5 75.5s-76.5 110.833 -76.5 181.5v986c0 70.667 25.5 131.167 76.5 181.5s112.5 75.5 184.5 75.5z" />
    <glyph glyph-name="uni1F173" unicode="D&#x20de;&#x25a0;" 
d="M587 1104v-752h324c116.667 0 204.834 32.167 264.501 96.5s89.5 157.5 89.5 279.5c0 122.667 -29.833 216 -89.5 280s-147.834 96 -264.501 96h-324zM796 938h80c58.667 0 101.334 -16.833 128.001 -50.5s40 -87.167 40 -160.5s-13.333 -126.5 -40 -159.5
s-69.334 -49.5 -128.001 -49.5h-80v420zM413 1472h975c72 0 133.333 -25 184 -75s76 -110.667 76 -182v-986c0 -71.333 -25.333 -132 -76 -182s-112 -75 -184 -75h-975c-72 0 -133.5 25.167 -184.5 75.5s-76.5 110.833 -76.5 181.5v986c0 70.667 25.5 131.167 76.5 181.5
s112.5 75.5 184.5 75.5z" />
    <glyph glyph-name="uni1F174" unicode="E&#x20de;&#x25a0;" 
d="M1179 513h-336v144h314v146h-314v139h336v162h-544v-752h544v161zM413 1472h975c72 0 133.333 -25 184 -75s76 -110.667 76 -182v-986c0 -71.333 -25.333 -132 -76 -182s-112 -75 -184 -75h-975c-72 0 -133.5 25.167 -184.5 75.5s-76.5 110.833 -76.5 181.5v986
c0 70.667 25.5 131.167 76.5 181.5s112.5 75.5 184.5 75.5z" />
    <glyph glyph-name="uni1F175" unicode="F&#x20de;&#x25a0;" 
d="M873 352v266h290v172h-290v144h320v170h-540v-752h220zM413 1472h975c72 0 133.333 -25 184 -75s76 -110.667 76 -182v-986c0 -71.333 -25.333 -132 -76 -182s-112 -75 -184 -75h-975c-72 0 -133.5 25.167 -184.5 75.5s-76.5 110.833 -76.5 181.5v986
c0 70.667 25.5 131.167 76.5 181.5s112.5 75.5 184.5 75.5z" />
    <glyph glyph-name="uni1F176" unicode="G&#x20de;&#x25a0;" 
d="M1039 615c0 -30.667 -11.833 -56 -35.5 -76s-56.5 -30 -98.5 -30c-45.333 0 -81.833 19.833 -109.5 59.5s-41.5 92.167 -41.5 157.5c0 64 13.833 115.167 41.5 153.5s64.167 57.5 109.5 57.5c36.667 0 66.334 -7.83301 89.001 -23.5s35.667 -36.167 39 -61.5h212
c-10.667 78.667 -47.334 142 -110.001 190s-140 72 -232 72c-110 0 -199 -35.667 -267 -107s-102 -165 -102 -281s33.833 -209.667 101.5 -281s156.5 -107 266.5 -107c102 0 184.333 29.167 247 87.5s94 130.833 94 217.5v132h-335v-146h131v-14zM413 1472h975
c72 0 133.333 -25 184 -75s76 -110.667 76 -182v-986c0 -71.333 -25.333 -132 -76 -182s-112 -75 -184 -75h-975c-72 0 -133.5 25.167 -184.5 75.5s-76.5 110.833 -76.5 181.5v986c0 70.667 25.5 131.167 76.5 181.5s112.5 75.5 184.5 75.5z" />
    <glyph glyph-name="uni1F177" unicode="H&#x20de;&#x25a0;" 
d="M1237 352v752h-208v-283h-257v283h-208v-752h208v284h257v-284h208zM413 1472h975c72 0 133.333 -25 184 -75s76 -110.667 76 -182v-986c0 -71.333 -25.333 -132 -76 -182s-112 -75 -184 -75h-975c-72 0 -133.5 25.167 -184.5 75.5s-76.5 110.833 -76.5 181.5v986
c0 70.667 25.5 131.167 76.5 181.5s112.5 75.5 184.5 75.5z" />
    <glyph glyph-name="uni1F178" unicode="I&#x20de;&#x25a0;" 
d="M1019 352v752h-237v-752h237zM413 1472h975c72 0 133.333 -25 184 -75s76 -110.667 76 -182v-986c0 -71.333 -25.333 -132 -76 -182s-112 -75 -184 -75h-975c-72 0 -133.5 25.167 -184.5 75.5s-76.5 110.833 -76.5 181.5v986c0 70.667 25.5 131.167 76.5 181.5
s112.5 75.5 184.5 75.5z" />
    <glyph glyph-name="uni1F179" unicode="J&#x20de;&#x25a0;" 
d="M573 617c0 -87.333 26.5 -157.332 79.5 -209.999s125.833 -79 218.5 -79c91.333 0 163.333 25.667 216 77s79 122.666 79 213.999v475h-224v-472c0 -60 -25.333 -90 -76 -90c-50 0 -75 28.333 -75 85h-218zM413 1472h975c72 0 133.333 -25 184 -75s76 -110.667 76 -182
v-986c0 -71.333 -25.333 -132 -76 -182s-112 -75 -184 -75h-975c-72 0 -133.5 25.167 -184.5 75.5s-76.5 110.833 -76.5 181.5v986c0 70.667 25.5 131.167 76.5 181.5s112.5 75.5 184.5 75.5z" />
    <glyph glyph-name="uni1F17A" unicode="K&#x20de;&#x25a0;" 
d="M1262 1104h-239l-231 -293h-9v293h-203v-752h203v197l64 73l170 -270h251c-16 20.667 -58.5 88.5 -127.5 203.5s-112.167 183.5 -129.5 205.5zM413 1472h975c72 0 133.333 -25 184 -75s76 -110.667 76 -182v-986c0 -71.333 -25.333 -132 -76 -182s-112 -75 -184 -75h-975
c-72 0 -133.5 25.167 -184.5 75.5s-76.5 110.833 -76.5 181.5v986c0 70.667 25.5 131.167 76.5 181.5s112.5 75.5 184.5 75.5z" />
    <glyph glyph-name="uni1F17B" unicode="L&#x20de;&#x25a0;" 
d="M1206 553h-307v562h-226v-752h533v190zM413 1472h975c72 0 133.333 -25 184 -75s76 -110.667 76 -182v-986c0 -71.333 -25.333 -132 -76 -182s-112 -75 -184 -75h-975c-72 0 -133.5 25.167 -184.5 75.5s-76.5 110.833 -76.5 181.5v986c0 70.667 25.5 131.167 76.5 181.5
s112.5 75.5 184.5 75.5z" />
    <glyph glyph-name="uni1F17C" unicode="M&#x20de;&#x25a0;" 
d="M683 352v456h13l149 -412h109l151 410h13v-454h169v752h-208l-177 -485h-3l-176 485h-209v-752h169zM413 1472h975c72 0 133.333 -25 184 -75s76 -110.667 76 -182v-986c0 -71.333 -25.333 -132 -76 -182s-112 -75 -184 -75h-975c-72 0 -133.5 25.167 -184.5 75.5
s-76.5 110.833 -76.5 181.5v986c0 70.667 25.5 131.167 76.5 181.5s112.5 75.5 184.5 75.5z" />
    <glyph glyph-name="uni1F17D" unicode="N&#x20de;&#x25a0;" 
d="M762 352v412h9l299 -412h160v752h-191v-408h-9l-299 408h-160v-752h191zM413 1472h975c72 0 133.333 -25 184 -75s76 -110.667 76 -182v-986c0 -71.333 -25.333 -132 -76 -182s-112 -75 -184 -75h-975c-72 0 -133.5 25.167 -184.5 75.5s-76.5 110.833 -76.5 181.5v986
c0 70.667 25.5 131.167 76.5 181.5s112.5 75.5 184.5 75.5z" />
    <glyph glyph-name="uni1F17E" unicode="O&#x20de;&#x25a0;" 
d="M900 521c-43.333 0 -79.166 17.833 -107.499 53.5s-42.5 86.167 -42.5 151.5s14.167 115.833 42.5 151.5s64.166 53.5 107.499 53.5s79.166 -17.667 107.499 -53s42.5 -86 42.5 -152s-14.167 -116.667 -42.5 -152s-64.166 -53 -107.499 -53zM900 338
c107.333 0 195.666 34.5 264.999 103.5s104 163.833 104 284.5s-34.667 215.5 -104 284.5s-157.666 103.5 -264.999 103.5c-106.667 0 -194.667 -34.5 -264 -103.5s-104 -163.833 -104 -284.5s34.667 -215.5 104 -284.5s157.333 -103.5 264 -103.5zM413 1472h975
c72 0 133.333 -25 184 -75s76 -110.667 76 -182v-986c0 -71.333 -25.333 -132 -76 -182s-112 -75 -184 -75h-975c-72 0 -133.5 25.167 -184.5 75.5s-76.5 110.833 -76.5 181.5v986c0 70.667 25.5 131.167 76.5 181.5s112.5 75.5 184.5 75.5z" />
    <glyph glyph-name="uni1F17F" unicode="P&#x20de;&#x25a0;" 
d="M971 1104l-343.999 0.000976562v-752h225v205h116c87.333 0 156.666 24.667 207.999 74s77 114.666 77 195.999c0 83.333 -25.5 150.333 -76.5 201s-119.5 76 -205.5 76zM1040 827.001c0 -34.667 -9.33203 -61.333 -27.999 -80s-45.334 -28 -80.001 -28h-96v218h96
c34 0 60.5 -9.5 79.5 -28.5s28.5 -46.167 28.5 -81.5zM413.002 1472h975c72 0 133.333 -25 184 -75s76 -110.667 76 -182v-986c0 -71.333 -25.333 -132 -76 -182s-112 -75 -184 -75h-975c-72 0 -133.5 25.167 -184.5 75.5s-76.5 110.833 -76.5 181.5v986
c0 70.667 25.5 131.167 76.5 181.5s112.5 75.5 184.5 75.5z" />
    <glyph glyph-name="uni1F180" unicode="Q&#x20de;&#x25a0;" 
d="M1251 288l-100.001 142c78.667 71.333 118 170 118 296c0 120.667 -34.667 215.5 -104 284.5s-157.666 103.5 -264.999 103.5c-106.667 0 -194.667 -34.5 -264 -103.5s-104 -163.833 -104 -284.5s34.667 -215.5 104 -284.5s157.333 -103.5 264 -103.5
c37.333 0 71.333 4.33301 102 13l35 -63h214zM899.999 521c-43.333 0 -79.166 17.832 -107.499 53.499s-42.5 86.167 -42.5 151.5s14.167 115.833 42.5 151.5s64.166 53.5 107.499 53.5s79.166 -17.667 107.499 -53s42.5 -86 42.5 -152
c0 -49.333 -10.667 -90.666 -32 -123.999l-23 28h-126l59 -106c-9.33301 -2 -18.666 -3 -27.999 -3zM412.999 1472h975c72 0 133.333 -25 184 -75s76 -110.667 76 -182v-986c0 -71.333 -25.333 -132 -76 -182s-112 -75 -184 -75h-975c-72 0 -133.5 25.167 -184.5 75.5
s-76.5 110.833 -76.5 181.5v986c0 70.667 25.5 131.167 76.5 181.5s112.5 75.5 184.5 75.5z" />
    <glyph glyph-name="uni1F181" unicode="R&#x20de;&#x25a0;" 
d="M792 754v186h118c34 0 60.333 -8 79 -24s28 -39.333 28 -70c0 -28.667 -9.66699 -51.167 -29 -67.5s-46 -24.5 -80 -24.5h-116zM933 1104h-340v-752h205v256h95l125 -256h234l-162 295c44 16 78.833 42.333 104.5 79s38.5 80.667 38.5 132c0 78 -26 138.5 -78 181.5
s-126 64.5 -222 64.5zM413 1472h975c72 0 133.333 -25 184 -75s76 -110.667 76 -182v-986c0 -71.333 -25.333 -132 -76 -182s-112 -75 -184 -75h-975c-72 0 -133.5 25.167 -184.5 75.5s-76.5 110.833 -76.5 181.5v986c0 70.667 25.5 131.167 76.5 181.5
s112.5 75.5 184.5 75.5z" />
    <glyph glyph-name="uni1F182" unicode="S&#x20de;&#x25a0;" 
d="M574 577c3.33301 -73.333 33.832 -131.001 91.499 -173.001s135.167 -63 232.5 -63c100 0 179.833 22.667 239.5 68s89.5 106 89.5 182c0 121.333 -72.333 194 -217 218l-105 18c-37.333 6 -64.166 14.167 -80.499 24.5s-24.5 23.833 -24.5 40.5
c0 20.667 9.16699 37 27.5 49s42.833 18 73.5 18c30 0 54.5 -6.33301 73.5 -19s30.167 -30 33.5 -52h203c-4.66699 69.333 -35.167 124.833 -91.5 166.5s-129.166 62.5 -218.499 62.5c-94 0 -169.667 -22.167 -227 -66.5s-86 -102.833 -86 -175.5
c0 -58.667 18.667 -106.5 56 -143.5s91 -61.5 161 -73.5l98 -18c43.333 -7.33301 73.333 -15.833 90 -25.5s25 -23.5 25 -41.5c0 -21.333 -10.167 -38.5 -30.5 -51.5s-47.833 -19.5 -82.5 -19.5c-34 0 -61.833 6.83301 -83.5 20.5s-33.834 31.834 -36.501 54.501h-211z
M412.999 1472h975c72 0 133.333 -25 184 -75s76 -110.667 76 -182v-986c0 -71.333 -25.333 -132 -76 -182s-112 -75 -184 -75h-975c-72 0 -133.5 25.167 -184.5 75.5s-76.5 110.833 -76.5 181.5v986c0 70.667 25.5 131.167 76.5 181.5s112.5 75.5 184.5 75.5z" />
    <glyph glyph-name="uni1F183" unicode="T&#x20de;&#x25a0;" 
d="M1013 338v567h211v185h-647v-185h211v-567h225zM413 1472h975c72 0 133.333 -25 184 -75s76 -110.667 76 -182v-986c0 -71.333 -25.333 -132 -76 -182s-112 -75 -184 -75h-975c-72 0 -133.5 25.167 -184.5 75.5s-76.5 110.833 -76.5 181.5v986
c0 70.667 25.5 131.167 76.5 181.5s112.5 75.5 184.5 75.5z" />
    <glyph glyph-name="uni1F184" unicode="U&#x20de;&#x25a0;" 
d="M900 510c-35.333 0 -63.333 9.66797 -84 29.001s-31 45.666 -31 78.999v473h-219v-504c0 -78.667 30.5 -141.834 91.5 -189.501s141.833 -71.5 242.5 -71.5s181.667 24 243 72s92 111 92 189v504h-219v-473c0 -33.333 -10.5 -59.666 -31.5 -78.999s-49.167 -29 -84.5 -29
zM413 1472h975c72 0 133.333 -25 184 -75s76 -110.667 76 -182v-986c0 -71.333 -25.333 -132 -76 -182s-112 -75 -184 -75h-975c-72 0 -133.5 25.167 -184.5 75.5s-76.5 110.833 -76.5 181.5v986c0 70.667 25.5 131.167 76.5 181.5s112.5 75.5 184.5 75.5z" />
    <glyph glyph-name="uni1F185" unicode="V&#x20de;&#x25a0;" 
d="M1044 333l232 752h-242l-128 -537h-11l-128 537h-243l233 -752h287zM413 1472h975c72 0 133.333 -25 184 -75s76 -110.667 76 -182v-986c0 -71.333 -25.333 -132 -76 -182s-112 -75 -184 -75h-975c-72 0 -133.5 25.167 -184.5 75.5s-76.5 110.833 -76.5 181.5v986
c0 70.667 25.5 131.167 76.5 181.5s112.5 75.5 184.5 75.5z" />
    <glyph glyph-name="uni1F186" unicode="W&#x20de;&#x25a0;" 
d="M899 792h3l112 -454h189l177 752h-202l-85 -497h-5l-109 497h-157l-109 -497h-5l-85 497h-202l178 -752h188zM413 1472h975c72 0 133.333 -25 184 -75s76 -110.667 76 -182v-986c0 -71.333 -25.333 -132 -76 -182s-112 -75 -184 -75h-975
c-72 0 -133.5 25.167 -184.5 75.5s-76.5 110.833 -76.5 181.5v986c0 70.667 25.5 131.167 76.5 181.5s112.5 75.5 184.5 75.5z" />
    <glyph glyph-name="uni1F187" unicode="X&#x20de;&#x25a0;" 
d="M1266 1104h-233l-125 -240h-10l-126 240h-246l236 -374l-237 -378h239l128 239h9l129 -239h234l-233 375zM413 1472h975c72 0 133.333 -25 184 -75s76 -110.667 76 -182v-986c0 -71.333 -25.333 -132 -76 -182s-112 -75 -184 -75h-975c-72 0 -133.5 25.167 -184.5 75.5
s-76.5 110.833 -76.5 181.5v986c0 70.667 25.5 131.167 76.5 181.5s112.5 75.5 184.5 75.5z" />
    <glyph glyph-name="uni1F188" unicode="Y&#x20de;&#x25a0;" 
d="M784 338h233v245l260 507h-245l-130 -294h-4l-129 294h-245l260 -507v-245zM413 1472h975c72 0 133.333 -25 184 -75s76 -110.667 76 -182v-986c0 -71.333 -25.333 -132 -76 -182s-112 -75 -184 -75h-975c-72 0 -133.5 25.167 -184.5 75.5s-76.5 110.833 -76.5 181.5v986
c0 70.667 25.5 131.167 76.5 181.5s112.5 75.5 184.5 75.5z" />
    <glyph glyph-name="uni1F189" unicode="Z&#x20de;&#x25a0;" 
d="M602 352h602v181h-328v5l317 422v144h-590v-182h316v-3l-317 -423v-144zM413 1472h975c72 0 133.333 -25 184 -75s76 -110.667 76 -182v-986c0 -71.333 -25.333 -132 -76 -182s-112 -75 -184 -75h-975c-72 0 -133.5 25.167 -184.5 75.5s-76.5 110.833 -76.5 181.5v986
c0 70.667 25.5 131.167 76.5 181.5s112.5 75.5 184.5 75.5z" />
    <glyph glyph-name="plus.uc.whitecircle" unicode="&#x2b;&#x20dd;" 
d="M987 641v-210h-173v210h-206v171h206v207h173v-207h205v-171h-205zM900 125c108.667 0 208.334 26.667 299.001 80s162 125.5 214 216.5s78 190.5 78 298.5s-26 207.5 -78 298.5s-123.333 163.167 -214 216.5s-190.334 80 -299.001 80s-208.334 -26.667 -299.001 -80
s-161.834 -125.5 -213.501 -216.5s-77.5 -190.5 -77.5 -298.5s25.833 -207.5 77.5 -298.5s122.834 -163.167 213.501 -216.5s190.334 -80 299.001 -80zM900 -55c-106 0 -206.833 20.333 -302.5 61s-178 95.5 -247 164.5s-123.833 151.333 -164.5 247s-61 196.5 -61 302.5
s20.333 207 61 303s95.5 178.5 164.5 247.5s151.333 123.833 247 164.5s196.5 61 302.5 61s206.833 -20.333 302.5 -61s178 -95.5 247 -164.5s123.833 -151.5 164.5 -247.5s61 -197 61 -303s-20.333 -206.833 -61 -302.5s-95.5 -178 -164.5 -247
s-151.333 -123.833 -247 -164.5s-196.5 -61 -302.5 -61z" />
    <glyph glyph-name="minus.uc.whitecircle" unicode="&#x2212;&#x20dd;" 
d="M1165 636h-530v178h530v-178zM900 125c108.667 0 208.334 26.667 299.001 80s162 125.5 214 216.5s78 190.5 78 298.5s-26 207.5 -78 298.5s-123.333 163.167 -214 216.5s-190.334 80 -299.001 80s-208.334 -26.667 -299.001 -80s-161.834 -125.5 -213.501 -216.5
s-77.5 -190.5 -77.5 -298.5s25.833 -207.5 77.5 -298.5s122.834 -163.167 213.501 -216.5s190.334 -80 299.001 -80zM900 -55c-106 0 -206.833 20.333 -302.5 61s-178 95.5 -247 164.5s-123.833 151.333 -164.5 247s-61 196.5 -61 302.5s20.333 207 61 303
s95.5 178.5 164.5 247.5s151.333 123.833 247 164.5s196.5 61 302.5 61s206.833 -20.333 302.5 -61s178 -95.5 247 -164.5s123.833 -151.5 164.5 -247.5s61 -197 61 -303s-20.333 -206.833 -61 -302.5s-95.5 -178 -164.5 -247s-151.333 -123.833 -247 -164.5
s-196.5 -61 -302.5 -61z" />
    <glyph glyph-name="multiply.uc.whitecircle" unicode="&#xd7;&#x20dd;" 
d="M900 851l159 155l123 -126l-159 -155l159 -156l-123 -124l-159 155l-160 -155l-121 124l159 156l-160 156l122 125zM900 125c108.667 0 208.334 26.667 299.001 80s162 125.5 214 216.5s78 190.5 78 298.5s-26 207.5 -78 298.5s-123.333 163.167 -214 216.5
s-190.334 80 -299.001 80s-208.334 -26.667 -299.001 -80s-161.834 -125.5 -213.501 -216.5s-77.5 -190.5 -77.5 -298.5s25.833 -207.5 77.5 -298.5s122.834 -163.167 213.501 -216.5s190.334 -80 299.001 -80zM900 -55c-106 0 -206.833 20.333 -302.5 61
s-178 95.5 -247 164.5s-123.833 151.333 -164.5 247s-61 196.5 -61 302.5s20.333 207 61 303s95.5 178.5 164.5 247.5s151.333 123.833 247 164.5s196.5 61 302.5 61s206.833 -20.333 302.5 -61s178 -95.5 247 -164.5s123.833 -151.5 164.5 -247.5s61 -197 61 -303
s-20.333 -206.833 -61 -302.5s-95.5 -178 -164.5 -247s-151.333 -123.833 -247 -164.5s-196.5 -61 -302.5 -61z" />
    <glyph glyph-name="divide.uc.whitecircle" unicode="&#xf7;&#x20dd;" 
d="M1165 656h-530v138h530v-138zM803 949c0 26 9.16699 47.5 27.5 64.5s41.5 25.5 69.5 25.5s51.5 -8.5 70.5 -25.5s28.5 -38.5 28.5 -64.5c0 -24.667 -9.5 -45.334 -28.5 -62.001s-42.5 -25 -70.5 -25c-27.333 0 -50.333 8.33301 -69 25s-28 37.334 -28 62.001zM803 502
c0 26 9.16699 47.333 27.5 64s41.5 25 69.5 25s51.5 -8.33301 70.5 -25s28.5 -38 28.5 -64c0 -25.333 -9.5 -46.333 -28.5 -63s-42.5 -25 -70.5 -25c-27.333 0 -50.333 8.33301 -69 25s-28 37.667 -28 63zM900 125c108.667 0 208.334 26.667 299.001 80s162 125.5 214 216.5
s78 190.5 78 298.5s-26 207.5 -78 298.5s-123.333 163.167 -214 216.5s-190.334 80 -299.001 80s-208.334 -26.667 -299.001 -80s-161.834 -125.5 -213.501 -216.5s-77.5 -190.5 -77.5 -298.5s25.833 -207.5 77.5 -298.5s122.834 -163.167 213.501 -216.5
s190.334 -80 299.001 -80zM900 -55c-106 0 -206.833 20.333 -302.5 61s-178 95.5 -247 164.5s-123.833 151.333 -164.5 247s-61 196.5 -61 302.5s20.333 207 61 303s95.5 178.5 164.5 247.5s151.333 123.833 247 164.5s196.5 61 302.5 61s206.833 -20.333 302.5 -61
s178 -95.5 247 -164.5s123.833 -151.5 164.5 -247.5s61 -197 61 -303s-20.333 -206.833 -61 -302.5s-95.5 -178 -164.5 -247s-151.333 -123.833 -247 -164.5s-196.5 -61 -302.5 -61z" />
    <glyph glyph-name="equal.uc.whitecircle" unicode="&#x3d;&#x20dd;" 
d="M1173 514h-545v156h545v-156zM1173 779h-545v155h545v-155zM900 125c108.667 0 208.334 26.667 299.001 80s162 125.5 214 216.5s78 190.5 78 298.5s-26 207.5 -78 298.5s-123.333 163.167 -214 216.5s-190.334 80 -299.001 80s-208.334 -26.667 -299.001 -80
s-161.834 -125.5 -213.501 -216.5s-77.5 -190.5 -77.5 -298.5s25.833 -207.5 77.5 -298.5s122.834 -163.167 213.501 -216.5s190.334 -80 299.001 -80zM900 -55c-106 0 -206.833 20.333 -302.5 61s-178 95.5 -247 164.5s-123.833 151.333 -164.5 247s-61 196.5 -61 302.5
s20.333 207 61 303s95.5 178.5 164.5 247.5s151.333 123.833 247 164.5s196.5 61 302.5 61s206.833 -20.333 302.5 -61s178 -95.5 247 -164.5s123.833 -151.5 164.5 -247.5s61 -197 61 -303s-20.333 -206.833 -61 -302.5s-95.5 -178 -164.5 -247
s-151.333 -123.833 -247 -164.5s-196.5 -61 -302.5 -61z" />
    <glyph glyph-name="greater.uc.whitecircle" unicode="&#x3e;&#x20dd;" 
d="M1187 778v-112l-521 -252v189l284 118v8l-284 114v194zM900 125c108.667 0 208.334 26.667 299.001 80s162 125.5 214 216.5s78 190.5 78 298.5s-26 207.5 -78 298.5s-123.333 163.167 -214 216.5s-190.334 80 -299.001 80s-208.334 -26.667 -299.001 -80
s-161.834 -125.5 -213.501 -216.5s-77.5 -190.5 -77.5 -298.5s25.833 -207.5 77.5 -298.5s122.834 -163.167 213.501 -216.5s190.334 -80 299.001 -80zM900 -55c-106 0 -206.833 20.333 -302.5 61s-178 95.5 -247 164.5s-123.833 151.333 -164.5 247s-61 196.5 -61 302.5
s20.333 207 61 303s95.5 178.5 164.5 247.5s151.333 123.833 247 164.5s196.5 61 302.5 61s206.833 -20.333 302.5 -61s178 -95.5 247 -164.5s123.833 -151.5 164.5 -247.5s61 -197 61 -303s-20.333 -206.833 -61 -302.5s-95.5 -178 -164.5 -247
s-151.333 -123.833 -247 -164.5s-196.5 -61 -302.5 -61z" />
    <glyph glyph-name="less.uc.whitecircle" unicode="&#x3c;&#x20dd;" 
d="M614 666v112l521 259v-194l-285 -114v-8l285 -118v-189zM900 125c108.667 0 208.334 26.667 299.001 80s162 125.5 214 216.5s78 190.5 78 298.5s-26 207.5 -78 298.5s-123.333 163.167 -214 216.5s-190.334 80 -299.001 80s-208.334 -26.667 -299.001 -80
s-161.834 -125.5 -213.501 -216.5s-77.5 -190.5 -77.5 -298.5s25.833 -207.5 77.5 -298.5s122.834 -163.167 213.501 -216.5s190.334 -80 299.001 -80zM900 -55c-106 0 -206.833 20.333 -302.5 61s-178 95.5 -247 164.5s-123.833 151.333 -164.5 247s-61 196.5 -61 302.5
s20.333 207 61 303s95.5 178.5 164.5 247.5s151.333 123.833 247 164.5s196.5 61 302.5 61s206.833 -20.333 302.5 -61s178 -95.5 247 -164.5s123.833 -151.5 164.5 -247.5s61 -197 61 -303s-20.333 -206.833 -61 -302.5s-95.5 -178 -164.5 -247
s-151.333 -123.833 -247 -164.5s-196.5 -61 -302.5 -61z" />
    <glyph glyph-name="numbersign.whitecircle" unicode="&#x30;&#x20dd;" 
d="M1194 777h-99l-20 -94h99l-26 -133h-100l-35 -170h-139l35 170h-93l-35 -170h-139l36 170h-97l26 133h97l20 94h-97l25 134h97l33 161h139l-34 -161h94l32 161h139l-32 -161h99zM853 788l-26 -125h119l25 125h-118zM900 125c108.667 0 208.334 26.667 299.001 80
s162 125.5 214 216.5s78 190.5 78 298.5s-26 207.5 -78 298.5s-123.333 163.167 -214 216.5s-190.334 80 -299.001 80s-208.334 -26.667 -299.001 -80s-161.834 -125.5 -213.501 -216.5s-77.5 -190.5 -77.5 -298.5s25.833 -207.5 77.5 -298.5
s122.834 -163.167 213.501 -216.5s190.334 -80 299.001 -80zM900 -55c-106 0 -206.833 20.333 -302.5 61s-178 95.5 -247 164.5s-123.833 151.333 -164.5 247s-61 196.5 -61 302.5s20.333 207 61 303s95.5 178.5 164.5 247.5s151.333 123.833 247 164.5s196.5 61 302.5 61
s206.833 -20.333 302.5 -61s178 -95.5 247 -164.5s123.833 -151.5 164.5 -247.5s61 -197 61 -303s-20.333 -206.833 -61 -302.5s-95.5 -178 -164.5 -247s-151.333 -123.833 -247 -164.5s-196.5 -61 -302.5 -61z" />
    <glyph glyph-name="uni25BC.whitecircle" unicode="&#x25bc;&#x20dd;" 
d="M1228 947l-328 -571l-327 571h655zM900 125c108.667 0 208.334 26.667 299.001 80s162 125.5 214 216.5s78 190.5 78 298.5s-26 207.5 -78 298.5s-123.333 163.167 -214 216.5s-190.334 80 -299.001 80s-208.334 -26.667 -299.001 -80s-161.834 -125.5 -213.501 -216.5
s-77.5 -190.5 -77.5 -298.5s25.833 -207.5 77.5 -298.5s122.834 -163.167 213.501 -216.5s190.334 -80 299.001 -80zM900 -55c-106 0 -206.833 20.333 -302.5 61s-178 95.5 -247 164.5s-123.833 151.333 -164.5 247s-61 196.5 -61 302.5s20.333 207 61 303
s95.5 178.5 164.5 247.5s151.333 123.833 247 164.5s196.5 61 302.5 61s206.833 -20.333 302.5 -61s178 -95.5 247 -164.5s123.833 -151.5 164.5 -247.5s61 -197 61 -303s-20.333 -206.833 -61 -302.5s-95.5 -178 -164.5 -247s-151.333 -123.833 -247 -164.5
s-196.5 -61 -302.5 -61z" />
    <glyph glyph-name="uni25B2.whitecircle" unicode="&#x25b2;&#x20dd;" 
d="M1228 504h-655l327 570zM900 125c108.667 0 208.334 26.667 299.001 80s162 125.5 214 216.5s78 190.5 78 298.5s-26 207.5 -78 298.5s-123.333 163.167 -214 216.5s-190.334 80 -299.001 80s-208.334 -26.667 -299.001 -80s-161.834 -125.5 -213.501 -216.5
s-77.5 -190.5 -77.5 -298.5s25.833 -207.5 77.5 -298.5s122.834 -163.167 213.501 -216.5s190.334 -80 299.001 -80zM900 -55c-106 0 -206.833 20.333 -302.5 61s-178 95.5 -247 164.5s-123.833 151.333 -164.5 247s-61 196.5 -61 302.5s20.333 207 61 303
s95.5 178.5 164.5 247.5s151.333 123.833 247 164.5s196.5 61 302.5 61s206.833 -20.333 302.5 -61s178 -95.5 247 -164.5s123.833 -151.5 164.5 -247.5s61 -197 61 -303s-20.333 -206.833 -61 -302.5s-95.5 -178 -164.5 -247s-151.333 -123.833 -247 -164.5
s-196.5 -61 -302.5 -61z" />
    <glyph glyph-name="uni25C0.whitecircle" unicode="&#x25c0;&#x20dd;" 
d="M1119 399l-568 329l568 328v-657zM900 125c108.667 0 208.334 26.667 299.001 80s162 125.5 214 216.5s78 190.5 78 298.5s-26 207.5 -78 298.5s-123.333 163.167 -214 216.5s-190.334 80 -299.001 80s-208.334 -26.667 -299.001 -80s-161.834 -125.5 -213.501 -216.5
s-77.5 -190.5 -77.5 -298.5s25.833 -207.5 77.5 -298.5s122.834 -163.167 213.501 -216.5s190.334 -80 299.001 -80zM900 -55c-106 0 -206.833 20.333 -302.5 61s-178 95.5 -247 164.5s-123.833 151.333 -164.5 247s-61 196.5 -61 302.5s20.333 207 61 303
s95.5 178.5 164.5 247.5s151.333 123.833 247 164.5s196.5 61 302.5 61s206.833 -20.333 302.5 -61s178 -95.5 247 -164.5s123.833 -151.5 164.5 -247.5s61 -197 61 -303s-20.333 -206.833 -61 -302.5s-95.5 -178 -164.5 -247s-151.333 -123.833 -247 -164.5
s-196.5 -61 -302.5 -61z" />
    <glyph glyph-name="uni25B6.whitecircle" unicode="&#x25b6;&#x20dd;" 
d="M682 399v657l568 -328zM900 125c108.667 0 208.334 26.667 299.001 80s162 125.5 214 216.5s78 190.5 78 298.5s-26 207.5 -78 298.5s-123.333 163.167 -214 216.5s-190.334 80 -299.001 80s-208.334 -26.667 -299.001 -80s-161.834 -125.5 -213.501 -216.5
s-77.5 -190.5 -77.5 -298.5s25.833 -207.5 77.5 -298.5s122.834 -163.167 213.501 -216.5s190.334 -80 299.001 -80zM900 -55c-106 0 -206.833 20.333 -302.5 61s-178 95.5 -247 164.5s-123.833 151.333 -164.5 247s-61 196.5 -61 302.5s20.333 207 61 303
s95.5 178.5 164.5 247.5s151.333 123.833 247 164.5s196.5 61 302.5 61s206.833 -20.333 302.5 -61s178 -95.5 247 -164.5s123.833 -151.5 164.5 -247.5s61 -197 61 -303s-20.333 -206.833 -61 -302.5s-95.5 -178 -164.5 -247s-151.333 -123.833 -247 -164.5
s-196.5 -61 -302.5 -61z" />
    <glyph glyph-name="question.whitecircle" unicode="&#x3f;&#x20dd;" 
d="M777 461c0 28.667 10.333 51 31 67s48.667 24 84 24s63.166 -8 83.499 -24s30.5 -38.333 30.5 -67c0 -27.333 -10.167 -49.166 -30.5 -65.499s-48.166 -24.5 -83.499 -24.5s-63.333 8.16699 -84 24.5s-31 38.166 -31 65.499zM800 605
c-1.33301 3.33301 -2.00195 13.666 -2.00195 30.999c-2 61.333 27 111 87 149c30.667 20 52 36.333 64 49s18 27 18 43c0 19.333 -6.5 34 -19.5 44s-29.5 15 -49.5 15c-21.333 0 -38.5 -6.5 -51.5 -19.5s-19.833 -29.5 -20.5 -49.5h-175c-0.666992 72 23 126.333 71 163
s112 55 192 55c72.667 0 132.334 -17.833 179.001 -53.5s70 -84.5 70 -146.5c0 -37.333 -8.66699 -68.666 -26 -93.999s-42.666 -48.666 -75.999 -69.999c-39.333 -26.667 -64.5 -45.834 -75.5 -57.501s-16.5 -27.167 -16.5 -46.5v-12h-169zM899.998 125
c108.667 0 208.334 26.667 299.001 80s162 125.5 214 216.5s78 190.5 78 298.5s-26 207.5 -78 298.5s-123.333 163.167 -214 216.5s-190.334 80 -299.001 80s-208.334 -26.667 -299.001 -80s-161.834 -125.5 -213.501 -216.5s-77.5 -190.5 -77.5 -298.5
s25.833 -207.5 77.5 -298.5s122.834 -163.167 213.501 -216.5s190.334 -80 299.001 -80zM899.998 -55c-106 0 -206.833 20.333 -302.5 61s-178 95.5 -247 164.5s-123.833 151.333 -164.5 247s-61 196.5 -61 302.5s20.333 207 61 303s95.5 178.5 164.5 247.5
s151.333 123.833 247 164.5s196.5 61 302.5 61s206.833 -20.333 302.5 -61s178 -95.5 247 -164.5s123.833 -151.5 164.5 -247.5s61 -197 61 -303s-20.333 -206.833 -61 -302.5s-95.5 -178 -164.5 -247s-151.333 -123.833 -247 -164.5s-196.5 -61 -302.5 -61z" />
    <glyph glyph-name="exclam.whitecircle" unicode="&#x21;&#x20dd;" 
d="M789 461c0 28.667 10.333 51.167 31 67.5s48.667 24.5 84 24.5s63.166 -8.16699 83.499 -24.5s30.5 -38.833 30.5 -67.5c0 -27.333 -10.167 -49.166 -30.5 -65.499s-48.166 -24.5 -83.499 -24.5s-63.333 8.16699 -84 24.5s-31 38.166 -31 65.499zM798 1074h213l-23 -456
h-168zM900 125c108.667 0 208.334 26.667 299.001 80s162 125.5 214 216.5s78 190.5 78 298.5s-26 207.5 -78 298.5s-123.333 163.167 -214 216.5s-190.334 80 -299.001 80s-208.334 -26.667 -299.001 -80s-161.834 -125.5 -213.501 -216.5s-77.5 -190.5 -77.5 -298.5
s25.833 -207.5 77.5 -298.5s122.834 -163.167 213.501 -216.5s190.334 -80 299.001 -80zM900 -55c-106 0 -206.833 20.333 -302.5 61s-178 95.5 -247 164.5s-123.833 151.333 -164.5 247s-61 196.5 -61 302.5s20.333 207 61 303s95.5 178.5 164.5 247.5
s151.333 123.833 247 164.5s196.5 61 302.5 61s206.833 -20.333 302.5 -61s178 -95.5 247 -164.5s123.833 -151.5 164.5 -247.5s61 -197 61 -303s-20.333 -206.833 -61 -302.5s-95.5 -178 -164.5 -247s-151.333 -123.833 -247 -164.5s-196.5 -61 -302.5 -61z" />
    <glyph glyph-name="uni2717.whitecircle" unicode="&#x2717;&#x20dd;" 
d="M904 846l226 222l119 -122l-225 -223l225 -222l-119 -123l-226 221l-227 -222l-119 123l226 223l-225 223l118 123zM900 125c108.667 0 208.334 26.667 299.001 80s162 125.5 214 216.5s78 190.5 78 298.5s-26 207.5 -78 298.5s-123.333 163.167 -214 216.5
s-190.334 80 -299.001 80s-208.334 -26.667 -299.001 -80s-161.834 -125.5 -213.501 -216.5s-77.5 -190.5 -77.5 -298.5s25.833 -207.5 77.5 -298.5s122.834 -163.167 213.501 -216.5s190.334 -80 299.001 -80zM900 -55c-106 0 -206.833 20.333 -302.5 61
s-178 95.5 -247 164.5s-123.833 151.333 -164.5 247s-61 196.5 -61 302.5s20.333 207 61 303s95.5 178.5 164.5 247.5s151.333 123.833 247 164.5s196.5 61 302.5 61s206.833 -20.333 302.5 -61s178 -95.5 247 -164.5s123.833 -151.5 164.5 -247.5s61 -197 61 -303
s-20.333 -206.833 -61 -302.5s-95.5 -178 -164.5 -247s-151.333 -123.833 -247 -164.5s-196.5 -61 -302.5 -61z" />
    <glyph glyph-name="uni2713.whitecircle" unicode="&#x2713;&#x20dd;" 
d="M1328 907l-543 -532l-311 308l125 126l188 -187l419 415zM900 125c108.667 0 208.334 26.667 299.001 80s162 125.5 214 216.5s78 190.5 78 298.5s-26 207.5 -78 298.5s-123.333 163.167 -214 216.5s-190.334 80 -299.001 80s-208.334 -26.667 -299.001 -80
s-161.834 -125.5 -213.501 -216.5s-77.5 -190.5 -77.5 -298.5s25.833 -207.5 77.5 -298.5s122.834 -163.167 213.501 -216.5s190.334 -80 299.001 -80zM900 -55c-106 0 -206.833 20.333 -302.5 61s-178 95.5 -247 164.5s-123.833 151.333 -164.5 247s-61 196.5 -61 302.5
s20.333 207 61 303s95.5 178.5 164.5 247.5s151.333 123.833 247 164.5s196.5 61 302.5 61s206.833 -20.333 302.5 -61s178 -95.5 247 -164.5s123.833 -151.5 164.5 -247.5s61 -197 61 -303s-20.333 -206.833 -61 -302.5s-95.5 -178 -164.5 -247
s-151.333 -123.833 -247 -164.5s-196.5 -61 -302.5 -61z" />
    <glyph glyph-name="zero.whitesquare" unicode="&#x30;&#x20de;" 
d="M900 529c32 0 57.167 16.332 75.5 48.999s27.5 82.334 27.5 149.001c0 131.333 -34.333 197 -103 197c-68 0 -102 -65.667 -102 -197c0 -132 34 -198 102 -198zM898 369.999c-88 0 -158.333 31.833 -211 95.5s-79 150.834 -79 261.501s26.333 197.834 79 261.501
s123 95.5 211 95.5s159 -31.833 213 -95.5s81 -150.834 81 -261.501s-27 -197.834 -81 -261.501s-125 -95.5 -213 -95.5zM413 1472h975c72 0 133.333 -25 184 -75s76 -110.667 76 -182v-986c0 -71.333 -25.333 -132 -76 -182s-112 -75 -184 -75h-975
c-72 0 -133.5 25.167 -184.5 75.5s-76.5 110.833 -76.5 181.5v986c0 70.667 25.5 131.167 76.5 181.5s112.5 75.5 184.5 75.5zM1468 1174c0 35.333 -12.833 65.333 -38.5 90s-57.167 37 -94.5 37h-870c-36.667 0 -68 -12.167 -94 -36.5s-39 -54.5 -39 -90.5v-904
c0 -34.667 13.167 -64.5 39.5 -89.5s57.5 -37.5 93.5 -37.5h870c36.667 0 68 12.5 94 37.5s39 54.833 39 89.5v904z" />
    <glyph glyph-name="one.whitesquare" unicode="&#x31;&#x20de;" 
d="M1040 382h-201v510h-10l-157 -106v177l167 111h201v-692zM413 1472h975c72 0 133.333 -25 184 -75s76 -110.667 76 -182v-986c0 -71.333 -25.333 -132 -76 -182s-112 -75 -184 -75h-975c-72 0 -133.5 25.167 -184.5 75.5s-76.5 110.833 -76.5 181.5v986
c0 70.667 25.5 131.167 76.5 181.5s112.5 75.5 184.5 75.5zM1468 1174c0 35.333 -12.833 65.333 -38.5 90s-57.167 37 -94.5 37h-870c-36.667 0 -68 -12.167 -94 -36.5s-39 -54.5 -39 -90.5v-904c0 -34.667 13.167 -64.5 39.5 -89.5s57.5 -37.5 93.5 -37.5h870
c36.667 0 68 12.5 94 37.5s39 54.833 39 89.5v904z" />
    <glyph glyph-name="two.whitesquare" unicode="&#x32;&#x20de;" 
d="M816 845l-186 0.00195312v3c0 69.333 24.167 126.166 72.5 170.499s114.833 66.5 199.5 66.5c78.667 0 142.167 -19.167 190.5 -57.5s72.5 -87.833 72.5 -148.5c0 -36.667 -10.5 -71.167 -31.5 -103.5s-54.167 -69.5 -99.5 -111.5l-121 -114v-8h263v-161h-534v127
l249 235c27.333 26 47 47.5 59 64.5s18 34.833 18 53.5c0 19.333 -7 35 -21 47s-31.667 18 -53 18c-24.667 0 -44 -7.33301 -58 -22s-20.667 -33.334 -20 -56.001v-3zM413 1472h975c72 0 133.333 -25 184 -75s76 -110.667 76 -182v-986c0 -71.333 -25.333 -132 -76 -182
s-112 -75 -184 -75h-975c-72 0 -133.5 25.167 -184.5 75.5s-76.5 110.833 -76.5 181.5v986c0 70.667 25.5 131.167 76.5 181.5s112.5 75.5 184.5 75.5zM1468 1174c0 35.333 -12.833 65.333 -38.5 90s-57.167 37 -94.5 37h-870c-36.667 0 -68 -12.167 -94 -36.5
s-39 -54.5 -39 -90.5v-904c0 -34.667 13.167 -64.5 39.5 -89.5s57.5 -37.5 93.5 -37.5h870c36.667 0 68 12.5 94 37.5s39 54.833 39 89.5v904z" />
    <glyph glyph-name="three.whitesquare" unicode="&#x33;&#x20de;" 
d="M825 659l-0.00488281 148.994h70c24.667 0 44.834 6.33301 60.501 19s23.5 29.334 23.5 50.001c0 18.667 -7.83301 33.667 -23.5 45s-35.834 17 -60.501 17c-26.667 0 -48.167 -7.16699 -64.5 -21.5s-25.166 -32.166 -26.499 -53.499h-183
c2.66699 69.333 27.834 123.5 75.501 162.5s114.834 58.5 201.501 58.5c82 0 147.5 -17 196.5 -51s74.167 -78.667 75.5 -134c0.666992 -38 -12.833 -71.167 -40.5 -99.5s-58.167 -44.833 -91.5 -49.5v-10c40 -3.33301 74.833 -19.666 104.5 -48.999
s44.834 -67.333 45.501 -114c0.666992 -63.333 -26 -113.666 -80 -150.999s-124.667 -56 -212 -56c-86 0 -154.333 20.5 -205 61.5s-76.667 94.5 -78 160.5h183c1.33301 -21.333 11 -38.666 29 -51.999s41.333 -20.333 70 -21c30 0 54 6.5 72 19.5s27 29.833 27 50.5
c-0.666992 20.667 -9.66699 37.334 -27 50.001s-40.666 19 -69.999 19h-72zM412.995 1471.99h975c72 0 133.333 -25 184 -75s76 -110.667 76 -182v-986c0 -71.333 -25.333 -132 -76 -182s-112 -75 -184 -75h-975c-72 0 -133.5 25.167 -184.5 75.5s-76.5 110.833 -76.5 181.5
v986c0 70.667 25.5 131.167 76.5 181.5s112.5 75.5 184.5 75.5zM1468 1173.99c0 35.333 -12.833 65.333 -38.5 90s-57.167 37 -94.5 37h-870c-36.667 0 -68 -12.167 -94 -36.5s-39 -54.5 -39 -90.5v-904c0 -34.667 13.167 -64.5 39.5 -89.5s57.5 -37.5 93.5 -37.5h870
c36.667 0 68 12.5 94 37.5s39 54.833 39 89.5v904z" />
    <glyph glyph-name="four.whitesquare" unicode="&#x34;&#x20de;" 
d="M834 1074l271 -0.000976562v-428h95v-152h-95v-112h-168v112h-346v155c50 96.667 131 238.334 243 425.001zM763 645.999h173.999v287h-14c-77.333 -132.667 -130.666 -227.667 -159.999 -285v-2zM412.999 1472h975c72 0 133.333 -25 184 -75s76 -110.667 76 -182v-986
c0 -71.333 -25.333 -132 -76 -182s-112 -75 -184 -75h-975c-72 0 -133.5 25.167 -184.5 75.5s-76.5 110.833 -76.5 181.5v986c0 70.667 25.5 131.167 76.5 181.5s112.5 75.5 184.5 75.5zM1468 1174c0 35.333 -12.833 65.333 -38.5 90s-57.167 37 -94.5 37h-870
c-36.667 0 -68 -12.167 -94 -36.5s-39 -54.5 -39 -90.5v-904c0 -34.667 13.167 -64.5 39.5 -89.5s57.5 -37.5 93.5 -37.5h870c36.667 0 68 12.5 94 37.5s39 54.833 39 89.5v904z" />
    <glyph glyph-name="five.whitesquare" unicode="&#x35;&#x20de;" 
d="M631 591h185c4 -20 15 -35.5 33 -46.5s38.667 -16.5 62 -16.5c26.667 0 49.5 8.83301 68.5 26.5s28.5 40.5 28.5 68.5c0 26 -9.5 47.5 -28.5 64.5s-42.167 25.5 -69.5 25.5c-20.667 0 -38.667 -4.5 -54 -13.5s-26.666 -20.167 -33.999 -33.5h-177l27 414h481v-147h-330
l-12 -147h9c10 18 28.5 33.333 55.5 46s58.5 19 94.5 19c67.333 0 122.333 -20 165 -60s64 -94 64 -162c0 -77.333 -26.167 -138.833 -78.5 -184.5s-122.833 -68.5 -211.5 -68.5c-80.667 0 -146.834 20.167 -198.501 60.5s-78.167 91.833 -79.5 154.5zM413 1472h975
c72 0 133.333 -25 184 -75s76 -110.667 76 -182v-986c0 -71.333 -25.333 -132 -76 -182s-112 -75 -184 -75h-975c-72 0 -133.5 25.167 -184.5 75.5s-76.5 110.833 -76.5 181.5v986c0 70.667 25.5 131.167 76.5 181.5s112.5 75.5 184.5 75.5zM1468 1174
c0 35.333 -12.833 65.333 -38.5 90s-57.167 37 -94.5 37h-870c-36.667 0 -68 -12.167 -94 -36.5s-39 -54.5 -39 -90.5v-904c0 -34.667 13.167 -64.5 39.5 -89.5s57.5 -37.5 93.5 -37.5h870c36.667 0 68 12.5 94 37.5s39 54.833 39 89.5v904z" />
    <glyph glyph-name="six.whitesquare" unicode="&#x36;&#x20de;" 
d="M1190 631c0 -78 -26.332 -140.999 -78.999 -188.999s-122 -72 -208 -72c-87.333 0 -158.333 24.5 -213 73.5s-82 112.833 -82 191.5c0 84.667 31.333 172.334 94 263.001c22 35.333 67.333 94.333 136 177h232c-25.333 -28 -58.5 -67.333 -99.5 -118
s-68.167 -85.667 -81.5 -105c-10.667 -14.667 -19.334 -28.334 -26.001 -41.001h9c32 22 68.667 33 110 33c59.333 0 108.833 -20.333 148.5 -61s59.5 -91.334 59.5 -152.001zM806.001 620.001c0 -26.667 9 -48.5 27 -65.5s41 -25.5 69 -25.5s51 8.5 69 25.5
s27 38.833 27 65.5c0 26 -9 47.667 -27 65s-41 26 -69 26s-51 -8.66699 -69 -26s-27 -39 -27 -65zM413.001 1472h975c72 0 133.333 -25 184 -75s76 -110.667 76 -182v-986c0 -71.333 -25.333 -132 -76 -182s-112 -75 -184 -75h-975c-72 0 -133.5 25.167 -184.5 75.5
s-76.5 110.833 -76.5 181.5v986c0 70.667 25.5 131.167 76.5 181.5s112.5 75.5 184.5 75.5zM1468 1174c0 35.333 -12.833 65.333 -38.5 90s-57.167 37 -94.5 37h-870c-36.667 0 -68 -12.167 -94 -36.5s-39 -54.5 -39 -90.5v-904c0 -34.667 13.167 -64.5 39.5 -89.5
s57.5 -37.5 93.5 -37.5h870c36.667 0 68 12.5 94 37.5s39 54.833 39 89.5v904z" />
    <glyph glyph-name="seven.whitesquare" unicode="&#x37;&#x20de;" 
d="M633 1074h543v-162l-274 -530h-213l284 524v8h-340v160zM413 1472h975c72 0 133.333 -25 184 -75s76 -110.667 76 -182v-986c0 -71.333 -25.333 -132 -76 -182s-112 -75 -184 -75h-975c-72 0 -133.5 25.167 -184.5 75.5s-76.5 110.833 -76.5 181.5v986
c0 70.667 25.5 131.167 76.5 181.5s112.5 75.5 184.5 75.5zM1468 1174c0 35.333 -12.833 65.333 -38.5 90s-57.167 37 -94.5 37h-870c-36.667 0 -68 -12.167 -94 -36.5s-39 -54.5 -39 -90.5v-904c0 -34.667 13.167 -64.5 39.5 -89.5s57.5 -37.5 93.5 -37.5h870
c36.667 0 68 12.5 94 37.5s39 54.833 39 89.5v904z" />
    <glyph glyph-name="eight.whitesquare" unicode="&#x38;&#x20de;" 
d="M900 506c29.333 0 53.667 8.16699 73 24.5s29 36.833 29 61.5c0 25.333 -9.5 46.333 -28.5 63s-43.5 25 -73.5 25c-29.333 0 -53.666 -8.33301 -72.999 -25s-29 -37.667 -29 -63c0 -24.667 9.66699 -45.167 29 -61.5s43.666 -24.5 72.999 -24.5zM900.001 803
c24.667 0 44.833 7 60.5 21s23.5 31.667 23.5 53c0 20.667 -8 38 -24 52s-36 21 -60 21s-44 -7 -60 -21s-24 -31.333 -24 -52c0 -21.333 8 -39 24 -53s36 -21 60 -21zM899 370c-92.667 0 -166.497 18.667 -221.497 56s-82.5 87.666 -82.5 150.999
c0 44 14.167 80.833 42.5 110.5s66.166 48.167 113.499 55.5v9c-84.667 24.667 -127 73.667 -127 147c0 56 25.167 101 75.5 135s117.166 51 200.499 51s150.166 -17 200.499 -51s75.5 -79 75.5 -135c0 -74.667 -42.333 -123.667 -127 -147v-9
c47.333 -7.33301 85.166 -25.833 113.499 -55.5s42.5 -66.5 42.5 -110.5c0 -63.333 -27.667 -113.666 -83 -150.999s-129.666 -56 -222.999 -56zM413.003 1472h975c72 0 133.333 -25 184 -75s76 -110.667 76 -182v-986c0 -71.333 -25.333 -132 -76 -182s-112 -75 -184 -75
h-975c-72 0 -133.5 25.167 -184.5 75.5s-76.5 110.833 -76.5 181.5v986c0 70.667 25.5 131.167 76.5 181.5s112.5 75.5 184.5 75.5zM1468 1174c0 35.333 -12.833 65.333 -38.5 90s-57.167 37 -94.5 37h-870c-36.667 0 -68 -12.167 -94 -36.5s-39 -54.5 -39 -90.5v-904
c0 -34.667 13.167 -64.5 39.5 -89.5s57.5 -37.5 93.5 -37.5h870c36.667 0 68 12.5 94 37.5s39 54.833 39 89.5v904z" />
    <glyph glyph-name="nine.whitesquare" unicode="&#x39;&#x20de;" 
d="M609 824c0 78.667 26.1689 142 78.502 190s121.833 72 208.5 72c87.333 0 158.333 -24.5 213 -73.5s82 -112.833 82 -191.5c0 -45.333 -7.66699 -89 -23 -131s-40.333 -88 -75 -138c-22.667 -33.333 -66.667 -90.333 -132 -171h-232
c91.333 106 150.666 178.667 177.999 218l29 45l-9 1c-30.667 -22 -67.334 -33 -110.001 -33c-59.333 0 -108.833 20.333 -148.5 61s-59.5 91 -59.5 151zM993.002 836c0 26 -9 47.667 -27 65s-41 26 -69 26s-51 -8.66699 -69 -26s-27 -39 -27 -65s9 -47.667 27 -65
s41 -26 69 -26s51 8.66699 69 26s27 39 27 65zM413.002 1472h975c72 0 133.333 -25 184 -75s76 -110.667 76 -182v-986c0 -71.333 -25.333 -132 -76 -182s-112 -75 -184 -75h-975c-72 0 -133.5 25.167 -184.5 75.5s-76.5 110.833 -76.5 181.5v986
c0 70.667 25.5 131.167 76.5 181.5s112.5 75.5 184.5 75.5zM1468 1174c0 35.333 -12.833 65.333 -38.5 90s-57.167 37 -94.5 37h-870c-36.667 0 -68 -12.167 -94 -36.5s-39 -54.5 -39 -90.5v-904c0 -34.667 13.167 -64.5 39.5 -89.5s57.5 -37.5 93.5 -37.5h870
c36.667 0 68 12.5 94 37.5s39 54.833 39 89.5v904z" />
    <glyph glyph-name="plus.uc.whitesquare" unicode="&#x2b;&#x20de;" 
d="M987 641v-210h-173v210h-206v171h206v207h173v-207h205v-171h-205zM413 1472h975c72 0 133.333 -25 184 -75s76 -110.667 76 -182v-986c0 -71.333 -25.333 -132 -76 -182s-112 -75 -184 -75h-975c-72 0 -133.5 25.167 -184.5 75.5s-76.5 110.833 -76.5 181.5v986
c0 70.667 25.5 131.167 76.5 181.5s112.5 75.5 184.5 75.5zM1468 1174c0 35.333 -12.833 65.333 -38.5 90s-57.167 37 -94.5 37h-870c-36.667 0 -68 -12.167 -94 -36.5s-39 -54.5 -39 -90.5v-904c0 -34.667 13.167 -64.5 39.5 -89.5s57.5 -37.5 93.5 -37.5h870
c36.667 0 68 12.5 94 37.5s39 54.833 39 89.5v904z" />
    <glyph glyph-name="minus.uc.whitesquare" unicode="&#x2212;&#x20de;" 
d="M1165 636h-530v178h530v-178zM413 1472h975c72 0 133.333 -25 184 -75s76 -110.667 76 -182v-986c0 -71.333 -25.333 -132 -76 -182s-112 -75 -184 -75h-975c-72 0 -133.5 25.167 -184.5 75.5s-76.5 110.833 -76.5 181.5v986c0 70.667 25.5 131.167 76.5 181.5
s112.5 75.5 184.5 75.5zM1468 1174c0 35.333 -12.833 65.333 -38.5 90s-57.167 37 -94.5 37h-870c-36.667 0 -68 -12.167 -94 -36.5s-39 -54.5 -39 -90.5v-904c0 -34.667 13.167 -64.5 39.5 -89.5s57.5 -37.5 93.5 -37.5h870c36.667 0 68 12.5 94 37.5s39 54.833 39 89.5
v904z" />
    <glyph glyph-name="multiply.uc.whitesquare" unicode="&#xd7;&#x20de;" 
d="M900 851l159 156l123 -125l-160 -156l160 -156l-123 -126l-159 156l-160 -156l-122 126l159 156l-159 156l122 125zM413 1472h975c72 0 133.333 -25 184 -75s76 -110.667 76 -182v-986c0 -71.333 -25.333 -132 -76 -182s-112 -75 -184 -75h-975
c-72 0 -133.5 25.167 -184.5 75.5s-76.5 110.833 -76.5 181.5v986c0 70.667 25.5 131.167 76.5 181.5s112.5 75.5 184.5 75.5zM1468 1174c0 35.333 -12.833 65.333 -38.5 90s-57.167 37 -94.5 37h-870c-36.667 0 -68 -12.167 -94 -36.5s-39 -54.5 -39 -90.5v-904
c0 -34.667 13.167 -64.5 39.5 -89.5s57.5 -37.5 93.5 -37.5h870c36.667 0 68 12.5 94 37.5s39 54.833 39 89.5v904z" />
    <glyph glyph-name="divide.uc.whitesquare" unicode="&#xf7;&#x20de;" 
d="M1165 656h-530v138h530v-138zM803 949c0 26 9.16699 47.5 27.5 64.5s41.5 25.5 69.5 25.5s51.5 -8.5 70.5 -25.5s28.5 -38.5 28.5 -64.5c0 -24.667 -9.5 -45.334 -28.5 -62.001s-42.5 -25 -70.5 -25c-27.333 0 -50.333 8.33301 -69 25s-28 37.334 -28 62.001zM803 502
c0 26 9.16699 47.333 27.5 64s41.5 25 69.5 25s51.5 -8.33301 70.5 -25s28.5 -38 28.5 -64c0 -25.333 -9.5 -46.333 -28.5 -63s-42.5 -25 -70.5 -25c-27.333 0 -50.333 8.33301 -69 25s-28 37.667 -28 63zM413 1472h975c72 0 133.333 -25 184 -75s76 -110.667 76 -182v-986
c0 -71.333 -25.333 -132 -76 -182s-112 -75 -184 -75h-975c-72 0 -133.5 25.167 -184.5 75.5s-76.5 110.833 -76.5 181.5v986c0 70.667 25.5 131.167 76.5 181.5s112.5 75.5 184.5 75.5zM1468 1174c0 35.333 -12.833 65.333 -38.5 90s-57.167 37 -94.5 37h-870
c-36.667 0 -68 -12.167 -94 -36.5s-39 -54.5 -39 -90.5v-904c0 -34.667 13.167 -64.5 39.5 -89.5s57.5 -37.5 93.5 -37.5h870c36.667 0 68 12.5 94 37.5s39 54.833 39 89.5v904z" />
    <glyph glyph-name="equal.uc.whitesquare" unicode="&#x3d;&#x20de;" 
d="M1173 514h-545v156h545v-156zM1173 779h-545v155h545v-155zM413 1472h975c72 0 133.333 -25 184 -75s76 -110.667 76 -182v-986c0 -71.333 -25.333 -132 -76 -182s-112 -75 -184 -75h-975c-72 0 -133.5 25.167 -184.5 75.5s-76.5 110.833 -76.5 181.5v986
c0 70.667 25.5 131.167 76.5 181.5s112.5 75.5 184.5 75.5zM1468 1174c0 35.333 -12.833 65.333 -38.5 90s-57.167 37 -94.5 37h-870c-36.667 0 -68 -12.167 -94 -36.5s-39 -54.5 -39 -90.5v-904c0 -34.667 13.167 -64.5 39.5 -89.5s57.5 -37.5 93.5 -37.5h870
c36.667 0 68 12.5 94 37.5s39 54.833 39 89.5v904z" />
    <glyph glyph-name="greater.uc.whitesquare" unicode="&#x3e;&#x20de;" 
d="M1187 778v-112l-521 -252v189l284 118v8l-284 114v194zM413 1472h975c72 0 133.333 -25 184 -75s76 -110.667 76 -182v-986c0 -71.333 -25.333 -132 -76 -182s-112 -75 -184 -75h-975c-72 0 -133.5 25.167 -184.5 75.5s-76.5 110.833 -76.5 181.5v986
c0 70.667 25.5 131.167 76.5 181.5s112.5 75.5 184.5 75.5zM1468 1174c0 35.333 -12.833 65.333 -38.5 90s-57.167 37 -94.5 37h-870c-36.667 0 -68 -12.167 -94 -36.5s-39 -54.5 -39 -90.5v-904c0 -34.667 13.167 -64.5 39.5 -89.5s57.5 -37.5 93.5 -37.5h870
c36.667 0 68 12.5 94 37.5s39 54.833 39 89.5v904z" />
    <glyph glyph-name="less.uc.whitesquare" unicode="&#x3c;&#x20de;" 
d="M614 666v112l521 259v-194l-285 -114v-8l285 -118v-189zM413 1472h975c72 0 133.333 -25 184 -75s76 -110.667 76 -182v-986c0 -71.333 -25.333 -132 -76 -182s-112 -75 -184 -75h-975c-72 0 -133.5 25.167 -184.5 75.5s-76.5 110.833 -76.5 181.5v986
c0 70.667 25.5 131.167 76.5 181.5s112.5 75.5 184.5 75.5zM1468 1174c0 35.333 -12.833 65.333 -38.5 90s-57.167 37 -94.5 37h-870c-36.667 0 -68 -12.167 -94 -36.5s-39 -54.5 -39 -90.5v-904c0 -34.667 13.167 -64.5 39.5 -89.5s57.5 -37.5 93.5 -37.5h870
c36.667 0 68 12.5 94 37.5s39 54.833 39 89.5v904z" />
    <glyph glyph-name="numbersign.whitesquare" unicode="&#x23;&#x20de;" 
d="M1194 777h-99l-20 -94h99l-26 -133h-100l-35 -170h-139l35 170h-93l-35 -170h-139l36 170h-97l26 133h97l20 94h-97l25 134h97l33 161h139l-34 -161h94l32 161h139l-32 -161h99zM853 788l-26 -125h119l25 125h-118zM413 1472h975c72 0 133.333 -25 184 -75
s76 -110.667 76 -182v-986c0 -71.333 -25.333 -132 -76 -182s-112 -75 -184 -75h-975c-72 0 -133.5 25.167 -184.5 75.5s-76.5 110.833 -76.5 181.5v986c0 70.667 25.5 131.167 76.5 181.5s112.5 75.5 184.5 75.5zM1468 1174c0 35.333 -12.833 65.333 -38.5 90
s-57.167 37 -94.5 37h-870c-36.667 0 -68 -12.167 -94 -36.5s-39 -54.5 -39 -90.5v-904c0 -34.667 13.167 -64.5 39.5 -89.5s57.5 -37.5 93.5 -37.5h870c36.667 0 68 12.5 94 37.5s39 54.833 39 89.5v904z" />
    <glyph glyph-name="uni25BC.whitesquare" unicode="&#x25bc;&#x20de;" 
d="M1229 947l-328 -571l-328 571h656zM413 1472h975c72 0 133.333 -25 184 -75s76 -110.667 76 -182v-986c0 -71.333 -25.333 -132 -76 -182s-112 -75 -184 -75h-975c-72 0 -133.5 25.167 -184.5 75.5s-76.5 110.833 -76.5 181.5v986c0 70.667 25.5 131.167 76.5 181.5
s112.5 75.5 184.5 75.5zM1468 1174c0 35.333 -12.833 65.333 -38.5 90s-57.167 37 -94.5 37h-870c-36.667 0 -68 -12.167 -94 -36.5s-39 -54.5 -39 -90.5v-904c0 -34.667 13.167 -64.5 39.5 -89.5s57.5 -37.5 93.5 -37.5h870c36.667 0 68 12.5 94 37.5s39 54.833 39 89.5
v904z" />
    <glyph glyph-name="uni25B2.whitesquare" unicode="&#x25b2;&#x20de;" 
d="M1228 504h-655l327 570zM413 1472h975c72 0 133.333 -25 184 -75s76 -110.667 76 -182v-986c0 -71.333 -25.333 -132 -76 -182s-112 -75 -184 -75h-975c-72 0 -133.5 25.167 -184.5 75.5s-76.5 110.833 -76.5 181.5v986c0 70.667 25.5 131.167 76.5 181.5
s112.5 75.5 184.5 75.5zM1468 1174c0 35.333 -12.833 65.333 -38.5 90s-57.167 37 -94.5 37h-870c-36.667 0 -68 -12.167 -94 -36.5s-39 -54.5 -39 -90.5v-904c0 -34.667 13.167 -64.5 39.5 -89.5s57.5 -37.5 93.5 -37.5h870c36.667 0 68 12.5 94 37.5s39 54.833 39 89.5
v904z" />
    <glyph glyph-name="uni25C0.whitesquare" unicode="&#x25c0;&#x20de;" 
d="M1119 399l-568 329l568 328v-657zM413 1472h975c72 0 133.333 -25 184 -75s76 -110.667 76 -182v-986c0 -71.333 -25.333 -132 -76 -182s-112 -75 -184 -75h-975c-72 0 -133.5 25.167 -184.5 75.5s-76.5 110.833 -76.5 181.5v986c0 70.667 25.5 131.167 76.5 181.5
s112.5 75.5 184.5 75.5zM1468 1174c0 35.333 -12.833 65.333 -38.5 90s-57.167 37 -94.5 37h-870c-36.667 0 -68 -12.167 -94 -36.5s-39 -54.5 -39 -90.5v-904c0 -34.667 13.167 -64.5 39.5 -89.5s57.5 -37.5 93.5 -37.5h870c36.667 0 68 12.5 94 37.5s39 54.833 39 89.5
v904z" />
    <glyph glyph-name="uni25B6.whitesquare" unicode="&#x25b6;&#x20de;" 
d="M682 399v657l568 -328zM413 1472h975c72 0 133.333 -25 184 -75s76 -110.667 76 -182v-986c0 -71.333 -25.333 -132 -76 -182s-112 -75 -184 -75h-975c-72 0 -133.5 25.167 -184.5 75.5s-76.5 110.833 -76.5 181.5v986c0 70.667 25.5 131.167 76.5 181.5
s112.5 75.5 184.5 75.5zM1468 1174c0 35.333 -12.833 65.333 -38.5 90s-57.167 37 -94.5 37h-870c-36.667 0 -68 -12.167 -94 -36.5s-39 -54.5 -39 -90.5v-904c0 -34.667 13.167 -64.5 39.5 -89.5s57.5 -37.5 93.5 -37.5h870c36.667 0 68 12.5 94 37.5s39 54.833 39 89.5
v904z" />
    <glyph glyph-name="question.whitesquare" unicode="&#x3f;&#x20de;" 
d="M777 461c0 28.667 10.333 51 31 67s48.667 24 84 24s63.166 -8 83.499 -24s30.5 -38.333 30.5 -67c0 -27.333 -10.167 -49.166 -30.5 -65.499s-48.166 -24.5 -83.499 -24.5s-63.333 8.16699 -84 24.5s-31 38.166 -31 65.499zM651 867
c-0.666992 72 22.998 126.333 70.998 163s112 55 192 55c72.667 0 132.334 -17.833 179.001 -53.5s70 -84.5 70 -146.5c0 -37.333 -8.66699 -68.666 -26 -93.999s-42.666 -48.666 -75.999 -69.999c-39.333 -26.667 -64.5 -45.834 -75.5 -57.501s-16.5 -27.167 -16.5 -46.5
v-12h-169c-1.33301 3.33301 -2 13.666 -2 30.999c-2 61.333 27 111 87 149c30.667 20 52 36.333 64 49s18 27 18 43c0 19.333 -6.5 34 -19.5 44s-29.5 15 -49.5 15c-21.333 0 -38.5 -6.5 -51.5 -19.5s-19.833 -29.5 -20.5 -49.5h-175zM412.998 1472h975
c72 0 133.333 -25 184 -75s76 -110.667 76 -182v-986c0 -71.333 -25.333 -132 -76 -182s-112 -75 -184 -75h-975c-72 0 -133.5 25.167 -184.5 75.5s-76.5 110.833 -76.5 181.5v986c0 70.667 25.5 131.167 76.5 181.5s112.5 75.5 184.5 75.5zM1468 1174
c0 35.333 -12.833 65.333 -38.5 90s-57.167 37 -94.5 37h-870c-36.667 0 -68 -12.167 -94 -36.5s-39 -54.5 -39 -90.5v-904c0 -34.667 13.167 -64.5 39.5 -89.5s57.5 -37.5 93.5 -37.5h870c36.667 0 68 12.5 94 37.5s39 54.833 39 89.5v904z" />
    <glyph glyph-name="exclam.whitesquare" unicode="&#x21;&#x20de;" 
d="M789 461c0 28.667 10.333 51.167 31 67.5s48.667 24.5 84 24.5s63.166 -8.16699 83.499 -24.5s30.5 -38.833 30.5 -67.5c0 -27.333 -10.167 -49.166 -30.5 -65.499s-48.166 -24.5 -83.499 -24.5s-63.333 8.16699 -84 24.5s-31 38.166 -31 65.499zM798 1074h213l-23 -456
h-168zM413 1472h975c72 0 133.333 -25 184 -75s76 -110.667 76 -182v-986c0 -71.333 -25.333 -132 -76 -182s-112 -75 -184 -75h-975c-72 0 -133.5 25.167 -184.5 75.5s-76.5 110.833 -76.5 181.5v986c0 70.667 25.5 131.167 76.5 181.5s112.5 75.5 184.5 75.5zM1468 1174
c0 35.333 -12.833 65.333 -38.5 90s-57.167 37 -94.5 37h-870c-36.667 0 -68 -12.167 -94 -36.5s-39 -54.5 -39 -90.5v-904c0 -34.667 13.167 -64.5 39.5 -89.5s57.5 -37.5 93.5 -37.5h870c36.667 0 68 12.5 94 37.5s39 54.833 39 89.5v904z" />
    <glyph glyph-name="uni2717.whitesquare" unicode="&#x2717;&#x20de;" 
d="M904 846l226 222l119 -122l-225 -223l225 -222l-119 -123l-226 221l-227 -222l-119 123l226 223l-225 223l118 123zM413 1472h975c72 0 133.333 -25 184 -75s76 -110.667 76 -182v-986c0 -71.333 -25.333 -132 -76 -182s-112 -75 -184 -75h-975
c-72 0 -133.5 25.167 -184.5 75.5s-76.5 110.833 -76.5 181.5v986c0 70.667 25.5 131.167 76.5 181.5s112.5 75.5 184.5 75.5zM1468 1174c0 35.333 -12.833 65.333 -38.5 90s-57.167 37 -94.5 37h-870c-36.667 0 -68 -12.167 -94 -36.5s-39 -54.5 -39 -90.5v-904
c0 -34.667 13.167 -64.5 39.5 -89.5s57.5 -37.5 93.5 -37.5h870c36.667 0 68 12.5 94 37.5s39 54.833 39 89.5v904z" />
    <glyph glyph-name="uni2713.whitesquare" unicode="&#x2713;&#x20de;" 
d="M1328 907l-543 -532l-311 308l125 126l188 -187l419 415zM413 1472h975c72 0 133.333 -25 184 -75s76 -110.667 76 -182v-986c0 -71.333 -25.333 -132 -76 -182s-112 -75 -184 -75h-975c-72 0 -133.5 25.167 -184.5 75.5s-76.5 110.833 -76.5 181.5v986
c0 70.667 25.5 131.167 76.5 181.5s112.5 75.5 184.5 75.5zM1468 1174c0 35.333 -12.833 65.333 -38.5 90s-57.167 37 -94.5 37h-870c-36.667 0 -68 -12.167 -94 -36.5s-39 -54.5 -39 -90.5v-904c0 -34.667 13.167 -64.5 39.5 -89.5s57.5 -37.5 93.5 -37.5h870
c36.667 0 68 12.5 94 37.5s39 54.833 39 89.5v904z" />
    <glyph glyph-name="plus.uc.blackcircle" unicode="&#x2b;&#x20dd;&#x25cf;" 
d="M996 632h222v188h-222v223h-192v-223h-222v-188h222v-226h192v226zM900 -53c-104.667 0 -204.668 20.499 -300.001 61.499s-177.666 96.167 -246.999 165.5s-124.5 151.833 -165.5 247.5s-61.5 195.834 -61.5 300.501c0 139.333 34.667 268.5 104 387.5
s163.5 213.167 282.5 282.5s248.167 104 387.5 104c104.667 0 204.834 -20.5 300.501 -61.5s178.167 -96.167 247.5 -165.5s124.5 -151.666 165.5 -246.999s61.5 -195.333 61.5 -300s-20.5 -204.834 -61.5 -300.501s-96.167 -178.167 -165.5 -247.5
s-151.833 -124.5 -247.5 -165.5s-195.834 -61.5 -300.501 -61.5z" />
    <glyph glyph-name="minus.uc.blackcircle" unicode="&#x2212;&#x20dd;&#x25cf;" 
d="M1189 626v196h-578v-196h578zM900 -53c-104.667 0 -204.668 20.499 -300.001 61.499s-177.666 96.167 -246.999 165.5s-124.5 151.833 -165.5 247.5s-61.5 195.834 -61.5 300.501c0 139.333 34.667 268.5 104 387.5s163.5 213.167 282.5 282.5s248.167 104 387.5 104
c104.667 0 204.834 -20.5 300.501 -61.5s178.167 -96.167 247.5 -165.5s124.5 -151.666 165.5 -246.999s61.5 -195.333 61.5 -300s-20.5 -204.834 -61.5 -300.501s-96.167 -178.167 -165.5 -247.5s-151.833 -124.5 -247.5 -165.5s-195.834 -61.5 -300.501 -61.5z" />
    <glyph glyph-name="multiply.uc.blackcircle" unicode="&#xd7;&#x20dd;&#x25cf;" 
d="M900 863l-173 169l-135 -139l172 -168l-172 -168l135 -138l173 167l172 -167l136 138l-173 168l173 168l-136 139zM900 -53c-104.667 0 -204.668 20.499 -300.001 61.499s-177.666 96.167 -246.999 165.5s-124.5 151.833 -165.5 247.5s-61.5 195.834 -61.5 300.501
c0 139.333 34.667 268.5 104 387.5s163.5 213.167 282.5 282.5s248.167 104 387.5 104c104.667 0 204.834 -20.5 300.501 -61.5s178.167 -96.167 247.5 -165.5s124.5 -151.666 165.5 -246.999s61.5 -195.333 61.5 -300s-20.5 -204.834 -61.5 -300.501
s-96.167 -178.167 -165.5 -247.5s-151.833 -124.5 -247.5 -165.5s-195.834 -61.5 -300.501 -61.5z" />
    <glyph glyph-name="divide.uc.blackcircle" unicode="&#xf7;&#x20dd;&#x25cf;" 
d="M792 966c0 -28 10.333 -51.167 31 -69.5s46.334 -27.5 77.001 -27.5s56.5 9.16699 77.5 27.5s31.5 41.5 31.5 69.5c0 28.667 -10.333 52.334 -31 71.001s-46.667 28 -78 28c-30.667 0 -56.334 -9.33301 -77.001 -28s-31 -42.334 -31 -71.001zM1189 648v153h-578v-153h578
zM792 484c0 -28 10.333 -51.167 31 -69.5s46.334 -27.5 77.001 -27.5c31.333 0 57.333 9.16699 78 27.5s31 41.5 31 69.5c0 28.667 -10.333 52.334 -31 71.001s-46.667 28 -78 28c-30.667 0 -56.334 -9.33301 -77.001 -28s-31 -42.334 -31 -71.001zM900 -53
c-104.667 0 -204.668 20.499 -300.001 61.499s-177.666 96.167 -246.999 165.5s-124.5 151.833 -165.5 247.5s-61.5 195.834 -61.5 300.501c0 139.333 34.667 268.5 104 387.5s163.5 213.167 282.5 282.5s248.167 104 387.5 104c104.667 0 204.834 -20.5 300.501 -61.5
s178.167 -96.167 247.5 -165.5s124.5 -151.666 165.5 -246.999s61.5 -195.333 61.5 -300s-20.5 -204.834 -61.5 -300.501s-96.167 -178.167 -165.5 -247.5s-151.833 -124.5 -247.5 -165.5s-195.834 -61.5 -300.501 -61.5z" />
    <glyph glyph-name="equal.uc.blackcircle" unicode="&#x3d;&#x20dd;&#x25cf;" 
d="M1196 783v170h-592v-170h592zM1196 494v169h-592v-169h592zM900 -53c-104.667 0 -204.668 20.499 -300.001 61.499s-177.666 96.167 -246.999 165.5s-124.5 151.833 -165.5 247.5s-61.5 195.834 -61.5 300.501c0 139.333 34.667 268.5 104 387.5
s163.5 213.167 282.5 282.5s248.167 104 387.5 104c104.667 0 204.834 -20.5 300.501 -61.5s178.167 -96.167 247.5 -165.5s124.5 -151.666 165.5 -246.999s61.5 -195.333 61.5 -300s-20.5 -204.834 -61.5 -300.501s-96.167 -178.167 -165.5 -247.5
s-151.833 -124.5 -247.5 -165.5s-195.834 -61.5 -300.501 -61.5z" />
    <glyph glyph-name="greater.uc.blackcircle" unicode="&#x3e;&#x20dd;&#x25cf;" 
d="M1207 783l-569 283v-205l308 -136v-3l-308 -140v-198l569 275v124zM900 -53c-104.667 0 -204.668 20.499 -300.001 61.499s-177.666 96.167 -246.999 165.5s-124.5 151.833 -165.5 247.5s-61.5 195.834 -61.5 300.501c0 139.333 34.667 268.5 104 387.5
s163.5 213.167 282.5 282.5s248.167 104 387.5 104c104.667 0 204.834 -20.5 300.501 -61.5s178.167 -96.167 247.5 -165.5s124.5 -151.666 165.5 -246.999s61.5 -195.333 61.5 -300s-20.5 -204.834 -61.5 -300.501s-96.167 -178.167 -165.5 -247.5
s-151.833 -124.5 -247.5 -165.5s-195.834 -61.5 -300.501 -61.5z" />
    <glyph glyph-name="less.uc.blackcircle" unicode="&#x3c;&#x20dd;&#x25cf;" 
d="M590 659l568 -275v198l-307 140v3l307 136v205l-568 -283v-124zM900 -53c-104.667 0 -204.668 20.499 -300.001 61.499s-177.666 96.167 -246.999 165.5s-124.5 151.833 -165.5 247.5s-61.5 195.834 -61.5 300.501c0 139.333 34.667 268.5 104 387.5
s163.5 213.167 282.5 282.5s248.167 104 387.5 104c104.667 0 204.834 -20.5 300.501 -61.5s178.167 -96.167 247.5 -165.5s124.5 -151.666 165.5 -246.999s61.5 -195.333 61.5 -300s-20.5 -204.834 -61.5 -300.501s-96.167 -178.167 -165.5 -247.5
s-151.833 -124.5 -247.5 -165.5s-195.834 -61.5 -300.501 -61.5z" />
    <glyph glyph-name="numbersign.blackcircle" unicode="&#x23;&#x20dd;&#x25cf;" 
d="M844 798h135l-29 -144h-135zM1218 778l29 150.001h-108l35 174h-158l-34 -174h-93l37 174h-159l-34 -174h-105l-29 -150h105l-20 -93h-105l-29 -152h103l-37 -183h157l39 183h91l-38 -183h158l37 183h109l29 152h-106c0.666992 4 4 20.167 10 48.5s9 43.166 9 44.499h107
zM900 -52.999c-104.667 0 -204.668 20.499 -300.001 61.499s-177.666 96.167 -246.999 165.5s-124.5 151.833 -165.5 247.5s-61.5 195.834 -61.5 300.501c0 139.333 34.667 268.5 104 387.5s163.5 213.167 282.5 282.5s248.167 104 387.5 104
c104.667 0 204.834 -20.5 300.501 -61.5s178.167 -96.167 247.5 -165.5s124.5 -151.666 165.5 -246.999s61.5 -195.333 61.5 -300s-20.5 -204.834 -61.5 -300.501s-96.167 -178.167 -165.5 -247.5s-151.833 -124.5 -247.5 -165.5s-195.834 -61.5 -300.501 -61.5z" />
    <glyph glyph-name="uni25BC.blackcircle" unicode="&#x25bc;&#x20dd;&#x25cf;" 
d="M1250 981h-698l348 -604zM900 -53c-104.667 0 -204.668 20.499 -300.001 61.499s-177.666 96.167 -246.999 165.5s-124.5 151.833 -165.5 247.5s-61.5 195.834 -61.5 300.501c0 139.333 34.667 268.5 104 387.5s163.5 213.167 282.5 282.5s248.167 104 387.5 104
c104.667 0 204.834 -20.5 300.501 -61.5s178.167 -96.167 247.5 -165.5s124.5 -151.666 165.5 -246.999s61.5 -195.333 61.5 -300s-20.5 -204.834 -61.5 -300.501s-96.167 -178.167 -165.5 -247.5s-151.833 -124.5 -247.5 -165.5s-195.834 -61.5 -300.501 -61.5z" />
    <glyph glyph-name="uni25B2.blackcircle" unicode="&#x25b2;&#x20dd;&#x25cf;" 
d="M1250 488l-350 604l-348 -604h698zM900 -53c-104.667 0 -204.668 20.499 -300.001 61.499s-177.666 96.167 -246.999 165.5s-124.5 151.833 -165.5 247.5s-61.5 195.834 -61.5 300.501c0 139.333 34.667 268.5 104 387.5s163.5 213.167 282.5 282.5
s248.167 104 387.5 104c104.667 0 204.834 -20.5 300.501 -61.5s178.167 -96.167 247.5 -165.5s124.5 -151.666 165.5 -246.999s61.5 -195.333 61.5 -300s-20.5 -204.834 -61.5 -300.501s-96.167 -178.167 -165.5 -247.5s-151.833 -124.5 -247.5 -165.5
s-195.834 -61.5 -300.501 -61.5z" />
    <glyph glyph-name="uni25C0.blackcircle" unicode="&#x25c0;&#x20dd;&#x25cf;" 
d="M1137 386v697l-605 -348zM900 -53c-104.667 0 -204.668 20.499 -300.001 61.499s-177.666 96.167 -246.999 165.5s-124.5 151.833 -165.5 247.5s-61.5 195.834 -61.5 300.501c0 139.333 34.667 268.5 104 387.5s163.5 213.167 282.5 282.5s248.167 104 387.5 104
c104.667 0 204.834 -20.5 300.501 -61.5s178.167 -96.167 247.5 -165.5s124.5 -151.666 165.5 -246.999s61.5 -195.333 61.5 -300s-20.5 -204.834 -61.5 -300.501s-96.167 -178.167 -165.5 -247.5s-151.833 -124.5 -247.5 -165.5s-195.834 -61.5 -300.501 -61.5z" />
    <glyph glyph-name="uni25B6.blackcircle" unicode="&#x25b6;&#x20dd;&#x25cf;" 
d="M663 386l605 349l-605 348v-697zM900 -53c-104.667 0 -204.668 20.499 -300.001 61.499s-177.666 96.167 -246.999 165.5s-124.5 151.833 -165.5 247.5s-61.5 195.834 -61.5 300.501c0 139.333 34.667 268.5 104 387.5s163.5 213.167 282.5 282.5s248.167 104 387.5 104
c104.667 0 204.834 -20.5 300.501 -61.5s178.167 -96.167 247.5 -165.5s124.5 -151.666 165.5 -246.999s61.5 -195.333 61.5 -300s-20.5 -204.834 -61.5 -300.501s-96.167 -178.167 -165.5 -247.5s-151.833 -124.5 -247.5 -165.5s-195.834 -61.5 -300.501 -61.5z" />
    <glyph glyph-name="question.blackcircle" unicode="&#x3f;&#x20dd;&#x25cf;" 
d="M760 429c0 -32 11.333 -56.998 34 -74.998s53.667 -27 93 -27c40 0 71.167 9.16699 93.5 27.5s33.5 43.166 33.5 74.499s-11.333 56.166 -34 74.499s-53.667 27.5 -93 27.5s-70.333 -9 -93 -27s-34 -43 -34 -75zM784 592.002l189.999 -0.00195312v15
c0 21.333 5.16699 37.833 15.5 49.5s33.833 28.834 70.5 51.501c45.333 30.667 77 58.5 95 83.5s27 59.833 27 104.5c0 67.333 -25.5 120.833 -76.5 160.5s-115.833 59.5 -194.5 59.5c-87.333 0 -157.166 -20 -209.499 -60s-78.5 -100 -78.5 -180v-2l199 3
c0 24 6.5 43.333 19.5 58s31.167 22 54.5 22c21.333 0 38.833 -5.66699 52.5 -17s20.5 -27.666 20.5 -48.999c0 -16.667 -5.5 -31 -16.5 -43s-27.333 -25.5 -49 -40.5s-38.167 -28.5 -49.5 -40.5c-50.667 -40.667 -74.667 -86.667 -72 -138c0 -20.667 0.666992 -33 2 -37z
M900.999 -53c-104.667 0 -204.668 20.499 -300.001 61.499s-177.666 96.167 -246.999 165.5s-124.5 151.833 -165.5 247.5s-61.5 195.834 -61.5 300.501c0 139.333 34.667 268.5 104 387.5s163.5 213.167 282.5 282.5s248.167 104 387.5 104
c104.667 0 204.834 -20.5 300.501 -61.5s178.167 -96.167 247.5 -165.5s124.5 -151.666 165.5 -246.999s61.5 -195.333 61.5 -300s-20.5 -204.834 -61.5 -300.501s-96.167 -178.167 -165.5 -247.5s-151.833 -124.5 -247.5 -165.5s-195.834 -61.5 -300.501 -61.5z" />
    <glyph glyph-name="exclam.blackcircle" unicode="&#x21;&#x20dd;&#x25cf;" 
d="M783 1105l24 -500h189l25 500h-238zM776 429c0 -31.333 11.335 -55.999 34.002 -73.999s53.667 -27 93 -27s70.166 9 92.499 27s33.5 42.667 33.5 74s-11.333 56.166 -34 74.499s-53.334 27.5 -92.001 27.5c-39.333 0 -70.333 -9 -93 -27s-34 -43 -34 -75z
M900.002 -52.999c-104.667 0 -204.668 20.499 -300.001 61.499s-177.666 96.167 -246.999 165.5s-124.5 151.833 -165.5 247.5s-61.5 195.834 -61.5 300.501c0 139.333 34.667 268.5 104 387.5s163.5 213.167 282.5 282.5s248.167 104 387.5 104
c104.667 0 204.834 -20.5 300.501 -61.5s178.167 -96.167 247.5 -165.5s124.5 -151.666 165.5 -246.999s61.5 -195.333 61.5 -300s-20.5 -204.834 -61.5 -300.501s-96.167 -178.167 -165.5 -247.5s-151.833 -124.5 -247.5 -165.5s-195.834 -61.5 -300.501 -61.5z" />
    <glyph glyph-name="uni2717.blackcircle" unicode="&#x2717;&#x20dd;&#x25cf;" 
d="M901 855l-244 241l-130 -133l245 -241l-245 -241l130 -134l244 240l244 -239l130 134l-244 240l244 240l-130 133zM900 -53c-104.667 0 -204.668 20.499 -300.001 61.499s-177.666 96.167 -246.999 165.5s-124.5 151.833 -165.5 247.5s-61.5 195.834 -61.5 300.501
c0 139.333 34.667 268.5 104 387.5s163.5 213.167 282.5 282.5s248.167 104 387.5 104c104.667 0 204.834 -20.5 300.501 -61.5s178.167 -96.167 247.5 -165.5s124.5 -151.666 165.5 -246.999s61.5 -195.333 61.5 -300s-20.5 -204.834 -61.5 -300.501
s-96.167 -178.167 -165.5 -247.5s-151.833 -124.5 -247.5 -165.5s-195.834 -61.5 -300.501 -61.5z" />
    <glyph glyph-name="uni2713.blackcircle" unicode="&#x2713;&#x20dd;&#x25cf;" 
d="M772 358l593 582l-135 143l-456 -451l-205 203l-137 -139zM900 -53c-104.667 0 -204.668 20.499 -300.001 61.499s-177.666 96.167 -246.999 165.5s-124.5 151.833 -165.5 247.5s-61.5 195.834 -61.5 300.501c0 139.333 34.667 268.5 104 387.5
s163.5 213.167 282.5 282.5s248.167 104 387.5 104c104.667 0 204.834 -20.5 300.501 -61.5s178.167 -96.167 247.5 -165.5s124.5 -151.666 165.5 -246.999s61.5 -195.333 61.5 -300s-20.5 -204.834 -61.5 -300.501s-96.167 -178.167 -165.5 -247.5
s-151.833 -124.5 -247.5 -165.5s-195.834 -61.5 -300.501 -61.5z" />
    <glyph glyph-name="zero.blacksquare" unicode="&#x30;&#x20de;&#x25a0;" 
d="M898 506c-70 0 -105 73.667 -105 221c0 146.667 35 220 105 220s105 -73.333 105 -220c0 -147.333 -35 -221 -105 -221zM896 338c98 0 176.167 34.667 234.5 104s87.5 164.333 87.5 285s-29.167 215.667 -87.5 285s-136.5 104 -234.5 104
c-97.333 0 -174.5 -34.667 -231.5 -104s-85.5 -164.333 -85.5 -285s28.5 -215.667 85.5 -285s134.167 -104 231.5 -104zM413 1472h975c72 0 133.333 -25 184 -75s76 -110.667 76 -182v-986c0 -71.333 -25.333 -132 -76 -182s-112 -75 -184 -75h-975
c-72 0 -133.5 25.167 -184.5 75.5s-76.5 110.833 -76.5 181.5v986c0 70.667 25.5 131.167 76.5 181.5s112.5 75.5 184.5 75.5z" />
    <glyph glyph-name="one.blacksquare" unicode="&#x31;&#x20de;&#x25a0;" 
d="M1054 351v752h-221l-183 -121v-200l176 117h5v-548h223zM413 1472h975c72 0 133.333 -25 184 -75s76 -110.667 76 -182v-986c0 -71.333 -25.333 -132 -76 -182s-112 -75 -184 -75h-975c-72 0 -133.5 25.167 -184.5 75.5s-76.5 110.833 -76.5 181.5v986
c0 70.667 25.5 131.167 76.5 181.5s112.5 75.5 184.5 75.5z" />
    <glyph glyph-name="two.blacksquare" unicode="&#x32;&#x20de;&#x25a0;" 
d="M802 849v5.00098c0 28 7.66699 50.667 23 68s37 26 65 26c24 0 43.833 -6.66699 59.5 -20s23.5 -30.333 23.5 -51c0 -22.667 -7.16699 -44.334 -21.5 -65.001s-39.166 -47.667 -74.499 -81l-263 -240v-141h583v180h-294v3l139 127c48 44 83.167 83.667 105.5 119
s33.5 74 33.5 116c0 62.667 -26.333 115 -79 157s-119.334 63 -200.001 63c-93.333 0 -166.833 -24.5 -220.5 -73.5s-80.5 -111.5 -80.5 -187.5v-5h201zM413 1472h975c72 0 133.333 -25 184 -75s76 -110.667 76 -182v-986c0 -71.333 -25.333 -132 -76 -182
s-112 -75 -184 -75h-975c-72 0 -133.5 25.167 -184.5 75.5s-76.5 110.833 -76.5 181.5v986c0 70.667 25.5 131.167 76.5 181.5s112.5 75.5 184.5 75.5z" />
    <glyph glyph-name="three.blacksquare" unicode="&#x33;&#x20de;&#x25a0;" 
d="M812 657h82.001c31.333 0 56.5 -7 75.5 -21s28.833 -32.667 29.5 -56c0 -22.667 -9.66699 -41.167 -29 -55.5s-45 -21.5 -77 -21.5c-31.333 0.666992 -56.833 8.33398 -76.5 23.001s-30.5 33.667 -32.5 57h-201c1.33301 -71.333 30.166 -129.833 86.499 -175.5
s130.833 -68.5 223.5 -68.5c94 0 170.667 20.667 230 62s88.666 96.666 87.999 165.999c-0.666992 49.333 -17.167 90.166 -49.5 122.499s-69.5 50.5 -111.5 54.5v6c36 5.33301 68.5 23.333 97.5 54s43.167 66.667 42.5 108c-1.33301 60.667 -28.833 109.667 -82.5 147
s-124.5 56 -212.5 56c-95.333 0 -169 -21.333 -221 -64s-79.667 -102.334 -83 -179.001h203c1.33301 24.667 10.5 44.334 27.5 59.001s40.167 22 69.5 22c26 0 47.333 -6.5 64 -19.5s25.334 -29.833 26.001 -50.5c0 -21.333 -8.5 -38.666 -25.5 -51.999
s-39.167 -20 -66.5 -20h-77v-154zM413.001 1472h975c72 0 133.333 -25 184 -75s76 -110.667 76 -182v-986c0 -71.333 -25.333 -132 -76 -182s-112 -75 -184 -75h-975c-72 0 -133.5 25.167 -184.5 75.5s-76.5 110.833 -76.5 181.5v986c0 70.667 25.5 131.167 76.5 181.5
s112.5 75.5 184.5 75.5z" />
    <glyph glyph-name="four.blacksquare" unicode="&#x34;&#x20de;&#x25a0;" 
d="M823 1103c-116.667 -189.333 -204.333 -343 -263 -461v-170h372v-121h189v121h102v170h-102v461h-298zM753.001 643c8 16 64.667 115.667 170 299h9v-300h-179v1zM413.001 1472h975c72 0 133.333 -25 184 -75s76 -110.667 76 -182v-986c0 -71.333 -25.333 -132 -76 -182
s-112 -75 -184 -75h-975c-72 0 -133.5 25.167 -184.5 75.5s-76.5 110.833 -76.5 181.5v986c0 70.667 25.5 131.167 76.5 181.5s112.5 75.5 184.5 75.5z" />
    <glyph glyph-name="five.blacksquare" unicode="&#x35;&#x20de;&#x25a0;" 
d="M602 582c1.33301 -70.667 29.835 -128 85.502 -172s128.167 -66 217.5 -66c96 0 172.667 25 230 75s86 117.333 86 202c0 74 -23.5 132.833 -70.5 176.5s-107.167 65.5 -180.5 65.5c-38.667 0 -72.334 -6.66699 -101.001 -20s-49 -29.666 -61 -48.999h-5
c0.666992 10 2.66699 36 6 78s5.33301 68 6 78h356v159h-525l-29 -451h189c8 16 21 29.667 39 41s38.667 17 62 17c31.333 0 57.166 -9.5 77.499 -28.5s30.5 -43.833 30.5 -74.5c0 -32 -10.5 -57.667 -31.5 -77s-46.167 -29 -75.5 -29c-27.333 0 -51 6.66699 -71 20
s-32.333 31.666 -37 54.999h-198zM413.002 1472h975c72 0 133.333 -25 184 -75s76 -110.667 76 -182v-986c0 -71.333 -25.333 -132 -76 -182s-112 -75 -184 -75h-975c-72 0 -133.5 25.167 -184.5 75.5s-76.5 110.833 -76.5 181.5v986c0 70.667 25.5 131.167 76.5 181.5
s112.5 75.5 184.5 75.5z" />
    <glyph glyph-name="six.blacksquare" unicode="&#x36;&#x20de;&#x25a0;" 
d="M1219 623c0 65.333 -21.502 119.832 -64.502 163.499s-96.833 65.5 -161.5 65.5c-44.667 0 -84.667 -11.667 -120 -35l-10 1c4.66699 9.33301 15.334 25 32.001 47c54.667 75.333 119 154.666 193 237.999h-251c-69.333 -83.333 -117.666 -145.666 -144.999 -186.999
c-37.333 -54 -64 -103.5 -80 -148.5s-24 -92.167 -24 -141.5c0 -85.333 29.5 -154.666 88.5 -207.999s135.833 -80 230.5 -80c94 0 169.5 26 226.5 78s85.5 121 85.5 207zM794.998 608.999c0 30.667 10.501 56.167 31.501 76.5s47.5 30.5 79.5 30.5
c32.667 0 59.5 -10.167 80.5 -30.5s31.5 -45.833 31.5 -76.5s-10.5 -56 -31.5 -76s-47.833 -30 -80.5 -30s-59.334 10 -80.001 30s-31 45.333 -31 76zM412.999 1472h975c72 0 133.333 -25 184 -75s76 -110.667 76 -182v-986c0 -71.333 -25.333 -132 -76 -182
s-112 -75 -184 -75h-975c-72 0 -133.5 25.167 -184.5 75.5s-76.5 110.833 -76.5 181.5v986c0 70.667 25.5 131.167 76.5 181.5s112.5 75.5 184.5 75.5z" />
    <glyph glyph-name="seven.blacksquare" unicode="&#x37;&#x20de;&#x25a0;" 
d="M605 1103v-180h366v-3l-309 -569h237l297 573v179h-591zM413 1472h975c72 0 133.333 -25 184 -75s76 -110.667 76 -182v-986c0 -71.333 -25.333 -132 -76 -182s-112 -75 -184 -75h-975c-72 0 -133.5 25.167 -184.5 75.5s-76.5 110.833 -76.5 181.5v986
c0 70.667 25.5 131.167 76.5 181.5s112.5 75.5 184.5 75.5z" />
    <glyph glyph-name="eight.blacksquare" unicode="&#x38;&#x20de;&#x25a0;" 
d="M898 801c-27.333 0 -49.833 8 -67.5 24s-26.5 36.333 -26.5 61c0 25.333 8.66699 46.166 26 62.499s40 24.5 68 24.5c28.667 0 51.667 -8.16699 69 -24.5s26 -37.166 26 -62.499s-8.83301 -45.833 -26.5 -61.5s-40.5 -23.5 -68.5 -23.5zM898 482
c-33.333 0 -60.666 9.16895 -81.999 27.502s-32 42.166 -32 71.499c0 28.667 10.667 52.334 32 71.001s48.666 28 81.999 28s60.833 -9.33301 82.5 -28s32.5 -42.334 32.5 -71.001s-10.833 -52.334 -32.5 -71.001s-49.167 -28 -82.5 -28zM898 338.002
c102 0 182.832 20.333 242.499 61s89.5 96 89.5 166c0 47.333 -14.833 87 -44.5 119s-70.5 52.333 -122.5 61v3c90 26.667 135 81 135 163c0 62 -27.167 111.5 -81.5 148.5s-127.166 55.5 -218.499 55.5c-90.667 0 -163.167 -18.5 -217.5 -55.5s-81.5 -86.5 -81.5 -148.5
c0 -82 45 -136.333 135 -163v-3c-52 -8.66699 -92.833 -29 -122.5 -61s-44.5 -71.667 -44.5 -119c0 -69.333 29.833 -124.5 89.5 -165.5s140.167 -61.5 241.5 -61.5zM412.999 1472h975c72 0 133.333 -25 184 -75s76 -110.667 76 -182v-986c0 -71.333 -25.333 -132 -76 -182
s-112 -75 -184 -75h-975c-72 0 -133.5 25.167 -184.5 75.5s-76.5 110.833 -76.5 181.5v986c0 70.667 25.5 131.167 76.5 181.5s112.5 75.5 184.5 75.5z" />
    <glyph glyph-name="nine.blacksquare" unicode="&#x39;&#x20de;&#x25a0;" 
d="M578 832c0 -66 21.5 -120.833 64.5 -164.5s96.833 -65.5 161.5 -65.5c45.333 0 85.333 11.667 120 35l10 -1c-6 -11.333 -16.667 -27.333 -32 -48c-52 -70.667 -116.333 -149.667 -193 -237h251c78.667 98.667 126 160 142 184c38 54 65.333 103.833 82 149.5
s25 93.5 25 143.5c0 86 -29.5 155.5 -88.5 208.5s-135.833 79.5 -230.5 79.5c-94 0 -169.5 -26 -226.5 -78s-85.5 -120.667 -85.5 -206zM1002 845c0 -30.667 -10.5 -56.167 -31.5 -76.5s-47.5 -30.5 -79.5 -30.5c-32.667 0 -59.5 10.167 -80.5 30.5s-31.5 45.833 -31.5 76.5
s10.5 56.167 31.5 76.5s47.833 30.5 80.5 30.5c32 0 58.5 -10.167 79.5 -30.5s31.5 -45.833 31.5 -76.5zM413 1472h975c72 0 133.333 -25 184 -75s76 -110.667 76 -182v-986c0 -71.333 -25.333 -132 -76 -182s-112 -75 -184 -75h-975c-72 0 -133.5 25.167 -184.5 75.5
s-76.5 110.833 -76.5 181.5v986c0 70.667 25.5 131.167 76.5 181.5s112.5 75.5 184.5 75.5z" />
    <glyph glyph-name="plus.uc.blacksquare" unicode="&#x2b;&#x20de;&#x25a0;" 
d="M996 632h222v188h-222v223h-192v-223h-222v-188h222v-226h192v226zM413 1472h975c72 0 133.333 -25 184 -75s76 -110.667 76 -182v-986c0 -71.333 -25.333 -132 -76 -182s-112 -75 -184 -75h-975c-72 0 -133.5 25.167 -184.5 75.5s-76.5 110.833 -76.5 181.5v986
c0 70.667 25.5 131.167 76.5 181.5s112.5 75.5 184.5 75.5z" />
    <glyph glyph-name="minus.uc.blacksquare" unicode="&#x2212;&#x20de;&#x25a0;" 
d="M1189 626v196h-578v-196h578zM413 1472h975c72 0 133.333 -25 184 -75s76 -110.667 76 -182v-986c0 -71.333 -25.333 -132 -76 -182s-112 -75 -184 -75h-975c-72 0 -133.5 25.167 -184.5 75.5s-76.5 110.833 -76.5 181.5v986c0 70.667 25.5 131.167 76.5 181.5
s112.5 75.5 184.5 75.5z" />
    <glyph glyph-name="multiply.uc.blacksquare" unicode="&#xd7;&#x20de;&#x25a0;" 
d="M900 863l-173 169l-135 -139l172 -168l-172 -168l135 -138l173 167l172 -167l136 138l-173 168l173 168l-136 139zM413 1472h975c72 0 133.333 -25 184 -75s76 -110.667 76 -182v-986c0 -71.333 -25.333 -132 -76 -182s-112 -75 -184 -75h-975
c-72 0 -133.5 25.167 -184.5 75.5s-76.5 110.833 -76.5 181.5v986c0 70.667 25.5 131.167 76.5 181.5s112.5 75.5 184.5 75.5z" />
    <glyph glyph-name="divide.uc.blacksquare" unicode="&#xf7;&#x20de;&#x25a0;" 
d="M792 966c0 -28 10.333 -51.167 31 -69.5s46.334 -27.5 77.001 -27.5s56.5 9.16699 77.5 27.5s31.5 41.5 31.5 69.5c0 28.667 -10.333 52.334 -31 71.001s-46.667 28 -78 28c-30.667 0 -56.334 -9.33301 -77.001 -28s-31 -42.334 -31 -71.001zM1189 648v153h-578v-153h578
zM792 484c0 -28 10.333 -51.167 31 -69.5s46.334 -27.5 77.001 -27.5c31.333 0 57.333 9.16699 78 27.5s31 41.5 31 69.5c0 28.667 -10.333 52.334 -31 71.001s-46.667 28 -78 28c-30.667 0 -56.334 -9.33301 -77.001 -28s-31 -42.334 -31 -71.001zM413 1472h975
c72 0 133.333 -25 184 -75s76 -110.667 76 -182v-986c0 -71.333 -25.333 -132 -76 -182s-112 -75 -184 -75h-975c-72 0 -133.5 25.167 -184.5 75.5s-76.5 110.833 -76.5 181.5v986c0 70.667 25.5 131.167 76.5 181.5s112.5 75.5 184.5 75.5z" />
    <glyph glyph-name="equal.uc.blacksquare" unicode="&#x3d;&#x20de;&#x25a0;" 
d="M1196 783v170h-592v-170h592zM1196 494v169h-592v-169h592zM413 1472h975c72 0 133.333 -25 184 -75s76 -110.667 76 -182v-986c0 -71.333 -25.333 -132 -76 -182s-112 -75 -184 -75h-975c-72 0 -133.5 25.167 -184.5 75.5s-76.5 110.833 -76.5 181.5v986
c0 70.667 25.5 131.167 76.5 181.5s112.5 75.5 184.5 75.5z" />
    <glyph glyph-name="greater.uc.blacksquare" unicode="&#x3e;&#x20de;&#x25a0;" 
d="M1207 783l-569 283v-205l308 -136v-3l-308 -140v-198l569 275v124zM413 1472h975c72 0 133.333 -25 184 -75s76 -110.667 76 -182v-986c0 -71.333 -25.333 -132 -76 -182s-112 -75 -184 -75h-975c-72 0 -133.5 25.167 -184.5 75.5s-76.5 110.833 -76.5 181.5v986
c0 70.667 25.5 131.167 76.5 181.5s112.5 75.5 184.5 75.5z" />
    <glyph glyph-name="less.uc.blacksquare" unicode="&#x3c;&#x20de;&#x25a0;" 
d="M590 659l568 -275v198l-153.5 70l-153.5 70v3l307 136v205l-568 -283v-124zM413 1472h975c72 0 133.333 -25 184 -75s76 -110.667 76 -182v-986c0 -71.333 -25.333 -132 -76 -182s-112 -75 -184 -75h-975c-72 0 -133.5 25.167 -184.5 75.5s-76.5 110.833 -76.5 181.5v986
c0 70.667 25.5 131.167 76.5 181.5s112.5 75.5 184.5 75.5z" />
    <glyph glyph-name="numbersign.blacksquare" unicode="&#x23;&#x20de;&#x25a0;" 
d="M844 798h135l-29 -144h-135zM1218 778l29 150.001h-108l35 174h-158l-34 -174h-93l37 174h-159l-34 -174h-105l-29 -150h105l-20 -93h-105l-29 -152h103l-37 -183h157l39 183h91l-38 -183h158l37 183h109l29 152h-106c0.666992 4 4 20.167 10 48.5s9 43.166 9 44.499h107
zM413 1472h975c72 0 133.333 -25 184 -75s76 -110.667 76 -182v-986c0 -71.333 -25.333 -132 -76 -182s-112 -75 -184 -75h-975c-72 0 -133.5 25.167 -184.5 75.5s-76.5 110.833 -76.5 181.5v986c0 70.667 25.5 131.167 76.5 181.5s112.5 75.5 184.5 75.5z" />
    <glyph glyph-name="uni25BC.blacksquare" unicode="&#x25bc;&#x20de;&#x25a0;" 
d="M1250 979h-698l348 -605zM413 1472h975c72 0 133.333 -25 184 -75s76 -110.667 76 -182v-986c0 -71.333 -25.333 -132 -76 -182s-112 -75 -184 -75h-975c-72 0 -133.5 25.167 -184.5 75.5s-76.5 110.833 -76.5 181.5v986c0 70.667 25.5 131.167 76.5 181.5
s112.5 75.5 184.5 75.5z" />
    <glyph glyph-name="uni25B2.blacksquare" unicode="&#x25b2;&#x20de;&#x25a0;" 
d="M1250 488l-350 604l-348 -604h698zM413 1472h975c72 0 133.333 -25 184 -75s76 -110.667 76 -182v-986c0 -71.333 -25.333 -132 -76 -182s-112 -75 -184 -75h-975c-72 0 -133.5 25.167 -184.5 75.5s-76.5 110.833 -76.5 181.5v986c0 70.667 25.5 131.167 76.5 181.5
s112.5 75.5 184.5 75.5z" />
    <glyph glyph-name="uni25C0.blacksquare" unicode="&#x25c0;&#x20de;&#x25a0;" 
d="M1137 386v697l-605 -348zM413 1472h975c72 0 133.333 -25 184 -75s76 -110.667 76 -182v-986c0 -71.333 -25.333 -132 -76 -182s-112 -75 -184 -75h-975c-72 0 -133.5 25.167 -184.5 75.5s-76.5 110.833 -76.5 181.5v986c0 70.667 25.5 131.167 76.5 181.5
s112.5 75.5 184.5 75.5z" />
    <glyph glyph-name="uni25B6.blacksquare" unicode="&#x25b6;&#x20de;&#x25a0;" 
d="M663 386l605 349l-605 348v-697zM413 1472h975c72 0 133.333 -25 184 -75s76 -110.667 76 -182v-986c0 -71.333 -25.333 -132 -76 -182s-112 -75 -184 -75h-975c-72 0 -133.5 25.167 -184.5 75.5s-76.5 110.833 -76.5 181.5v986c0 70.667 25.5 131.167 76.5 181.5
s112.5 75.5 184.5 75.5z" />
    <glyph glyph-name="question.blacksquare" unicode="&#x3f;&#x20de;&#x25a0;" 
d="M760 429c0 -32 11.333 -56.998 34 -74.998s53.667 -27 93 -27c40 0 71.167 9.16699 93.5 27.5s33.5 43.166 33.5 74.499s-11.333 56.166 -34 74.499s-53.667 27.5 -93 27.5s-70.333 -9 -93 -27s-34 -43 -34 -75zM911 1116c-87.333 0 -157.167 -20.002 -209.5 -60.002
s-78.5 -100 -78.5 -180v-2l199 3c0 24 6.5 43.333 19.5 58s31.167 22 54.5 22c21.333 0 38.833 -5.66699 52.5 -17s20.5 -27.666 20.5 -48.999c0 -16.667 -5.5 -31 -16.5 -43s-27.333 -25.5 -49 -40.5s-38.167 -28.5 -49.5 -40.5c-50.667 -40.667 -74.667 -86.667 -72 -138
c0 -20.667 0.666992 -33 2 -37h190v15c0 21.333 5.16699 37.833 15.5 49.5s33.833 28.834 70.5 51.501c45.333 30.667 77 58.5 95 83.5s27 59.833 27 104.5c0 67.333 -25.5 120.833 -76.5 160.5s-115.833 59.5 -194.5 59.5zM412.999 1472h975c72 0 133.333 -25 184 -75
s76 -110.667 76 -182v-986c0 -71.333 -25.333 -132 -76 -182s-112 -75 -184 -75h-975c-72 0 -133.5 25.167 -184.5 75.5s-76.5 110.833 -76.5 181.5v986c0 70.667 25.5 131.167 76.5 181.5s112.5 75.5 184.5 75.5z" />
    <glyph glyph-name="exclam.blacksquare" unicode="&#x21;&#x20de;&#x25a0;" 
d="M783 1105l24 -500h189l25 500h-238zM776 429c0 -31.333 11.335 -55.999 34.002 -73.999s53.667 -27 93 -27s70.166 9 92.499 27s33.5 42.667 33.5 74s-11.333 56.166 -34 74.499s-53.334 27.5 -92.001 27.5c-39.333 0 -70.333 -9 -93 -27s-34 -43 -34 -75zM413.002 1472
h975c72 0 133.333 -25 184 -75s76 -110.667 76 -182v-986c0 -71.333 -25.333 -132 -76 -182s-112 -75 -184 -75h-975c-72 0 -133.5 25.167 -184.5 75.5s-76.5 110.833 -76.5 181.5v986c0 70.667 25.5 131.167 76.5 181.5s112.5 75.5 184.5 75.5z" />
    <glyph glyph-name="uni2717.blacksquare" unicode="&#x2717;&#x20de;&#x25a0;" 
d="M527 963l245 -241l-245 -241l130 -134l244 240l244 -239l130 134l-244 240l244 240l-130 133l-244 -240l-244 241zM413 1472h975c72 0 133.333 -25 184 -75s76 -110.667 76 -182v-986c0 -71.333 -25.333 -132 -76 -182s-112 -75 -184 -75h-975
c-72 0 -133.5 25.167 -184.5 75.5s-76.5 110.833 -76.5 181.5v986c0 70.667 25.5 131.167 76.5 181.5s112.5 75.5 184.5 75.5z" />
    <glyph glyph-name="uni2713.blacksquare" unicode="&#x2713;&#x20de;&#x25a0;" 
d="M772 358l593 582l-135 143l-456 -451l-205 203l-137 -139zM413 1472h975c72 0 133.333 -25 184 -75s76 -110.667 76 -182v-986c0 -71.333 -25.333 -132 -76 -182s-112 -75 -184 -75h-975c-72 0 -133.5 25.167 -184.5 75.5s-76.5 110.833 -76.5 181.5v986
c0 70.667 25.5 131.167 76.5 181.5s112.5 75.5 184.5 75.5z" />
    <glyph glyph-name=".notdef" horiz-adv-x="2048" 
d="M100 -494v198h1848v-198h-1848zM100 -45v198h1848v-198h-1848zM100 404v199h1848v-199h-1848zM100 853v199h1848v-199h-1848zM100 1303v198h1848v-198h-1848zM100 1752v198h1848v-198h-1848z" />
    <glyph glyph-name="space" unicode=" " horiz-adv-x="528" 
 />
    <glyph glyph-name="exclam" unicode="!" horiz-adv-x="730" 
d="M205 1443h320l-27 -968h-267zM365 -30c-56 0 -100.333 15.165 -133 45.498s-49 71.833 -49 124.5s16.333 94.334 49 125.001s77 46 133 46c56.667 0 101.167 -15.167 133.5 -45.5s48.5 -72.166 48.5 -125.499c0 -52.667 -16.167 -94.167 -48.5 -124.5
s-76.833 -45.5 -133.5 -45.5z" />
    <glyph glyph-name="quotedbl" unicode="&#x22;" horiz-adv-x="1016" 
d="M402 831h-250v612h250v-612zM864 831h-250v612h250v-612z" />
    <glyph glyph-name="numbersign" unicode="#" horiz-adv-x="1360" 
d="M661 0l77 378h-260l-76 -378h-221l76 378h-225l41 222h227l54 262h-231l42 220h231l74 362h221l-72 -362h258l74 362h222l-73 -362h236l-41 -220h-239l-54 -262h241l-41 -222h-243l-76 -378h-222zM503 580h287l63 301h-288z" />
    <glyph glyph-name="dollar" unicode="$" horiz-adv-x="1415" 
d="M784 -135h-139.997v125c-156.667 8.66699 -279.5 50.334 -368.5 125.001s-133.833 173 -134.5 295h286c3.33301 -49.333 24.833 -91 64.5 -125s90.5 -54.333 152.5 -61v372l-105 25c-120.667 28 -212.334 76.167 -275.001 144.5s-94 154.5 -94 258.5
c0 122.667 41.667 221.667 125 297s199.666 119 348.999 131v136h140v-136c139.333 -13.333 250.666 -57.833 333.999 -133.5s126 -171.167 128 -286.5h-279c-1.33301 45.333 -19 85 -53 119s-77.333 54.667 -130 62v-356l107 -22
c255.333 -54.667 383 -189.334 383 -404.001c0 -127.333 -42.5 -229 -127.5 -305s-205.833 -120.667 -362.5 -134v-127zM990.003 397c0 90.667 -68.667 148.666 -206 173.999v-348c64.667 4 115.167 21.333 151.5 52s54.5 71.334 54.5 122.001zM460.003 1052
c0 -42 15.667 -77.167 47 -105.5s77 -48.5 137 -60.5v328c-54 -2.66699 -98.167 -19.167 -132.5 -49.5s-51.5 -67.833 -51.5 -112.5z" />
    <glyph glyph-name="percent" unicode="%" horiz-adv-x="1701" 
d="M741 1111c0 -110 -31 -198.667 -93 -266s-143.667 -101 -245 -101c-100.667 0 -182.167 33.667 -244.5 101s-93.5 156 -93.5 266c0 109.333 31.167 197.5 93.5 264.5s143.833 100.5 244.5 100.5c101.333 0 183 -33.5 245 -100.5s93 -155.167 93 -264.5zM403 936
c35.333 0 63.333 15.667 84 47s31 74 31 128c0 54.667 -10.167 97.5 -30.5 128.5s-48.5 46.5 -84.5 46.5c-35.333 0 -63.333 -15.667 -84 -47s-31 -74 -31 -128s10.333 -96.667 31 -128s48.667 -47 84 -47zM506 0h-282l545 756l434 687h281l-554 -762zM1636 333
c0 -109.333 -31 -197.665 -93 -264.998s-143.667 -101 -245 -101c-100.667 0 -182 33.667 -244 101s-93 155.666 -93 264.999s31 197.666 93 264.999s143.333 101 244 101c101.333 0 183 -33.5 245 -100.5s93 -155.5 93 -265.5zM1298 159.001
c35.333 0 63.333 15.666 84 46.999s31 74 31 128c0 54.667 -10.167 97.334 -30.5 128.001s-48.5 46 -84.5 46c-35.333 0 -63.333 -15.5 -84 -46.5s-31 -73.5 -31 -127.5s10.333 -96.667 31 -128s48.667 -47 84 -47z" />
    <glyph glyph-name="ampersand" unicode="&#x26;" horiz-adv-x="1525" 
d="M1172 0l-111 117.003c-53.333 -45.333 -119.5 -80.833 -198.5 -106.5s-162.5 -38.5 -250.5 -38.5c-153.333 0 -275.833 36.667 -367.5 110s-137.5 171.666 -137.5 294.999c0 82.667 21.5 154.667 64.5 216s111.167 117.666 204.5 168.999
c2 0.666992 12.833 6.5 32.5 17.5s30.167 16.833 31.5 17.5c-65.333 67.333 -111.5 126 -138.5 176s-40.5 101.667 -40.5 155c0 97.333 38.833 177.833 116.5 241.5s175.834 95.5 294.501 95.5c118 0 214.667 -30.833 290 -92.5s113 -141.167 113 -238.5
c0 -74.667 -23.833 -142.667 -71.5 -204s-121.834 -119.333 -222.501 -174l277 -287c34 60 51 147.667 51 263v71h245v-90c0 -176.667 -41 -320.334 -123 -431.001l268 -282h-327zM535 618.003c-103.333 -56 -155 -128 -155 -216c0 -62.667 24.167 -113.5 72.5 -152.5
s111.5 -58.5 189.5 -58.5c52.667 0 103 8.83301 151 26.5s86.333 41.5 115 71.5l-331 349c-10.667 -4 -24.667 -10.667 -42 -20zM646 897.003c66 32.667 113.499 66.0029 142.499 100.003s43.5 72.333 43.5 115c0 45.333 -14.667 82.166 -44 110.499
s-67.666 42.5 -114.999 42.5s-86 -14.333 -116 -43s-45 -65.334 -45 -110.001c0 -32.667 9.83301 -64.834 29.5 -96.501s54.5 -71.167 104.5 -118.5z" />
    <glyph glyph-name="quotesingle" unicode="'" horiz-adv-x="553" 
d="M402 831h-250v612h250v-612z" />
    <glyph glyph-name="parenleft" unicode="(" horiz-adv-x="878" 
d="M223 607c0 373.333 99 678.998 297 916.998h268c-74.667 -94.667 -137.334 -228.167 -188.001 -400.5s-76 -344.166 -76 -515.499s25.333 -343.166 76 -515.499s113.334 -306.5 188.001 -402.5h-268c-198 240 -297 545.667 -297 917z" />
    <glyph glyph-name="parenright" unicode=")" horiz-adv-x="878" 
d="M655 607c0 -372.667 -98.665 -678.331 -295.998 -916.998h-269c75.333 95.333 138.166 229.166 188.499 401.499s75.5 344.5 75.5 516.5c0 171.333 -25.333 343.166 -76 515.499s-113.334 305.833 -188.001 400.5h269c197.333 -238 296 -543.667 296 -917z" />
    <glyph glyph-name="asterisk" unicode="*" horiz-adv-x="1032" 
d="M808 783l-230 179l39 -288h-201l39 288l-231 -179l-100 178l272 109l-272 108l100 180l232 -185l-40 293h201l-41 -293l232 185l100 -180l-271 -108l271 -109z" />
    <glyph glyph-name="plus" unicode="+" horiz-adv-x="1415" 
d="M835 455v-409h-255v409h-412v258h412v408h255v-408h413v-258h-413z" />
    <glyph glyph-name="comma" unicode="," horiz-adv-x="712" 
d="M336 -391h-195l92 625h285z" />
    <glyph glyph-name="hyphen" unicode="&#x2011;" horiz-adv-x="992" 
d="M825 446h-657v273h657v-273z" />
    <glyph glyph-name="hyphen" unicode="-" horiz-adv-x="992" 
d="M825 446h-657v273h657v-273z" />
    <glyph glyph-name="period" unicode="." horiz-adv-x="712" 
d="M356 -27c-53.333 0 -96.166 16.167 -128.499 48.5s-48.5 74.166 -48.5 125.499c0 50.667 16.167 92.167 48.5 124.5s75.166 48.5 128.499 48.5s96.166 -16 128.499 -48s48.5 -73.667 48.5 -125s-16.167 -93.166 -48.5 -125.499s-75.166 -48.5 -128.499 -48.5z" />
    <glyph glyph-name="slash" unicode="/" horiz-adv-x="793" 
d="M271 -310h-271l522 1834h271z" />
    <glyph glyph-name="zero" unicode="0" horiz-adv-x="1402" 
d="M701 -37c-178.667 0 -318.833 67.167 -420.5 201.5s-152.5 320.833 -152.5 559.5c0 238 50.833 423.5 152.5 556.5s241.834 199.5 420.501 199.5c178 0 318 -66.667 420 -200s153 -319 153 -557s-50.833 -424.167 -152.5 -558.5s-241.834 -201.5 -420.501 -201.5z
M701.001 209c84 0 149.499 44.167 196.499 132.5s70.5 215.833 70.5 382.5c0 165.333 -23.5 291.5 -70.5 378.5s-112.5 130.5 -196.5 130.5c-83.333 0 -148.666 -43.667 -195.999 -131s-71 -213.333 -71 -378c0 -166 23.5 -293.333 70.5 -382s112.5 -133 196.5 -133z" />
    <glyph glyph-name="one" unicode="1" horiz-adv-x="1051" 
d="M495 0v1149h-18l-354 -244v281l373 257h301v-1443h-302z" />
    <glyph glyph-name="two" unicode="2" horiz-adv-x="1318" 
d="M129 1011c0 139.333 48.667 252.336 146 339.003s224 130 380 130c150.667 0 273.5 -39.167 368.5 -117.5s142.5 -179.5 142.5 -303.5c0 -78.667 -24.667 -156.834 -74 -234.501s-136.333 -175.167 -261 -292.5l-276 -263v-18h632v-251h-1041v211l471 461
c101.333 98.667 169 172.667 203 222s51 97.666 51 144.999c0 58 -21.167 105.5 -63.5 142.5s-96.5 55.5 -162.5 55.5c-70 0 -126.833 -20.833 -170.5 -62.5s-65.5 -95.834 -65.5 -162.501v-6h-280v5z" />
    <glyph glyph-name="three" unicode="3" horiz-adv-x="1370" 
d="M498 626l0.00390625 225h176c68.667 0 124.167 18.333 166.5 55s63.5 84.334 63.5 143.001c0 58 -20.833 104.167 -62.5 138.5s-97.834 51.5 -168.501 51.5c-70 0 -126.667 -18.333 -170 -55s-67 -86.334 -71 -149.001h-279c5.33301 136.667 55.333 245 150 325
s220.667 120 378 120c148 0 269.833 -36.5 365.5 -109.5s143.5 -166.167 143.5 -279.5c0 -83.333 -24.167 -155 -72.5 -215s-112.833 -98.333 -193.5 -115v-18c99.333 -11.333 177.833 -47.833 235.5 -109.5s86.5 -139.834 86.5 -234.501
c0 -83.333 -24.167 -158.166 -72.5 -224.499s-115.833 -118.166 -202.5 -155.499s-184 -56 -292 -56c-160.667 0 -291.334 41 -392.001 123s-154.334 191 -161.001 327h289c4.66699 -61.333 31 -109.833 79 -145.5s110.667 -53.5 188 -53.5
c75.333 0 136.833 19.333 184.5 58s71.5 88.667 71.5 150c0 63.333 -23.333 113.166 -70 149.499s-110.334 54.5 -191.001 54.5h-179z" />
    <glyph glyph-name="four" unicode="4" horiz-adv-x="1410" 
d="M820 0v252h-706v267c112.667 212.667 303 520.667 571 924h423v-940h189v-251h-189v-252h-288zM385 510v-16h442v714h-16c-154 -230 -296 -462.667 -426 -698z" />
    <glyph glyph-name="five" unicode="5" horiz-adv-x="1359" 
d="M691 -37c-155.333 0 -282.502 41.832 -381.502 125.499s-150.833 190.834 -155.5 321.501h279c8.66699 -60 37 -108.333 85 -145s106.333 -55 175 -55c78 0 141.167 24 189.5 72s72.5 111 72.5 189c0 79.333 -24.333 143.333 -73 192s-111.334 73 -188.001 73
c-111.333 0 -193.666 -43.333 -246.999 -130h-270l72 837h907v-251h-673l-32 -371h18c65.333 94 167.333 141 306 141c136.667 0 248.834 -45.333 336.501 -136s131.5 -206.667 131.5 -348c0 -153.333 -50.667 -277.5 -152 -372.5s-234.666 -142.5 -399.999 -142.5z" />
    <glyph glyph-name="six" unicode="6" horiz-adv-x="1401" 
d="M722 -37c-104.667 0 -197.833 22.332 -279.5 66.999s-147.167 109.334 -196.5 194.001c-80.667 124 -121 286.333 -121 487c0 239.333 53.333 427.333 160 564s254 205 442 205c137.333 0 254.5 -37 351.5 -111s155.833 -171.333 176.5 -292h-299
c-14 47.333 -41.833 85 -83.5 113s-90.834 42 -147.501 42c-98.667 0 -176.167 -44.167 -232.5 -132.5s-82.833 -207.5 -79.5 -357.5h18c32.667 68 81.167 120.5 145.5 157.5s138.5 55.5 222.5 55.5c136.667 0 250 -45.333 340 -136s135 -205 135 -343
c0 -150 -51.667 -273 -155 -369s-235.666 -144 -396.999 -144zM719.001 210.999c74 0 136.166 24.501 186.499 73.501s75.5 109.833 75.5 182.5c0 73.333 -24.667 134.166 -74 182.499s-111.666 72.5 -186.999 72.5s-137.833 -24 -187.5 -72s-74.5 -108 -74.5 -180
c0 -73.333 25 -134.833 75 -184.5s112 -74.5 186 -74.5z" />
    <glyph glyph-name="seven" unicode="7" horiz-adv-x="1239" 
d="M210 0l615 1177v18h-728v249h1032v-252l-603 -1192h-316z" />
    <glyph glyph-name="eight" unicode="8" horiz-adv-x="1421" 
d="M710 -37c-173.333 0 -313.667 39 -421 117s-161 179.667 -161 305c0 90.667 28.833 169.5 86.5 236.5s134.834 111.167 231.501 132.5v18c-78.667 18 -141.667 55.667 -189 113s-71 124.333 -71 201c0 115.333 49.167 209.833 147.5 283.5s224.166 110.5 377.499 110.5
c152.667 0 278.167 -36.833 376.5 -110.5s147.5 -168.167 147.5 -283.5c0 -76.667 -23.5 -143.5 -70.5 -200.5s-110.167 -94.833 -189.5 -113.5v-18c96 -18 173.167 -60.5 231.5 -127.5s87.5 -146.5 87.5 -238.5c0 -126.667 -54 -229.167 -162 -307.5
s-248.667 -117.5 -422 -117.5zM709.999 191c79.333 0 144 20.667 194 62s75 94.666 75 159.999c0 66 -25 119.667 -75 161s-114.667 62 -194 62s-143.833 -20.667 -193.5 -62s-74.5 -95 -74.5 -161c0 -65.333 24.833 -118.666 74.5 -159.999s114.167 -62 193.5 -62z
M709.999 859c66.667 0 121.167 18.5 163.5 55.5s63.5 84.5 63.5 142.5c0 58.667 -21.167 106.5 -63.5 143.5s-96.833 55.5 -163.5 55.5s-121 -18.5 -163 -55.5s-63 -84.833 -63 -143.5c0 -58 21 -105.5 63 -142.5s96.333 -55.5 163 -55.5z" />
    <glyph glyph-name="nine" unicode="9" horiz-adv-x="1401" 
d="M674 -37c-136.667 0 -253.667 37.166 -351 111.499s-156.333 171.5 -177 291.5h299c14 -47.333 41.833 -85 83.5 -113s90.834 -42 147.501 -42c98.667 0 176.167 44.333 232.5 133s82.833 208 79.5 358h-9h-7h-2c-32.667 -68 -81.167 -120.5 -145.5 -157.5
s-138.5 -55.5 -222.5 -55.5c-137.333 0 -250.833 45.167 -340.5 135.5s-134.5 204.5 -134.5 342.5c0 150 51.667 273 155 369s235.666 144 396.999 144c104 0 196.833 -22.167 278.5 -66.5s147.5 -108.833 197.5 -193.5c80.667 -125.333 121 -287.666 121 -486.999
c0 -240 -53.333 -428.333 -160 -565s-254 -205 -442 -205zM681 721.999c75.333 0 137.834 23.832 187.501 71.499s74.5 107.834 74.5 180.501c0 73.333 -25 134.833 -75 184.5s-112 74.5 -186 74.5s-136.167 -24.667 -186.5 -74s-75.5 -110 -75.5 -182
c0 -74 24.667 -135 74 -183s111.666 -72 186.999 -72z" />
    <glyph glyph-name="colon" unicode=":" horiz-adv-x="712" 
d="M356 -27c-53.333 0 -96.166 16.167 -128.499 48.5s-48.5 74.166 -48.5 125.499c0 50.667 16.167 92.167 48.5 124.5s75.166 48.5 128.499 48.5s96.166 -16 128.499 -48s48.5 -73.667 48.5 -125s-16.167 -93.166 -48.5 -125.499s-75.166 -48.5 -128.499 -48.5zM356 711
c-53.333 0 -96.166 16.167 -128.499 48.5s-48.5 74.166 -48.5 125.499c0 50.667 16.167 92.167 48.5 124.5s75.166 48.5 128.499 48.5s96.166 -16 128.499 -48s48.5 -73.667 48.5 -125s-16.167 -93.166 -48.5 -125.499s-75.166 -48.5 -128.499 -48.5z" />
    <glyph glyph-name="semicolon" unicode=";" horiz-adv-x="712" 
d="M356 711c-53.333 0 -96.166 16.167 -128.499 48.5s-48.5 74.166 -48.5 125.499c0 50.667 16.167 92.167 48.5 124.5s75.166 48.5 128.499 48.5s96.166 -16 128.499 -48s48.5 -73.667 48.5 -125s-16.167 -93.166 -48.5 -125.499s-75.166 -48.5 -128.499 -48.5zM326 -391
h-204l96 625h286z" />
    <glyph glyph-name="less" unicode="&#x3c;" horiz-adv-x="1415" 
d="M1184 904l-657 -303v-19l657 -303v-301l-953 496v235l953 496v-301z" />
    <glyph glyph-name="equal" unicode="=" horiz-adv-x="1415" 
d="M1244 216h-1073v259h1073v-259zM1244 695h-1073v259h1073v-259z" />
    <glyph glyph-name="greater" unicode="&#x3e;" horiz-adv-x="1415" 
d="M231 904v301l953 -496v-235l-953 -496v301l657 303v19z" />
    <glyph glyph-name="question" unicode="?" horiz-adv-x="1141" 
d="M78 1035c2.66699 127.333 46.667 229.334 132 306.001s203.333 115 354 115c142.667 0 257.5 -36 344.5 -108s130.5 -166 130.5 -282c0 -74 -17.667 -138.333 -53 -193s-89 -103 -161 -145c-66.667 -38.667 -111.667 -73.334 -135 -104.001s-35 -70 -35 -118v-53h-265
l-2 55c-6.66699 78.667 4.16602 143.167 32.499 193.5s77.5 96.166 147.5 137.499c65.333 38.667 109.666 73.167 132.999 103.5s35 68.5 35 114.5c0 46.667 -17.5 84.834 -52.5 114.501s-80.833 44.5 -137.5 44.5c-57.333 0 -103.666 -16.333 -138.999 -49
s-54.666 -76.667 -57.999 -132h-271zM533 -29.999c-56 0 -100.333 15.167 -133 45.5s-49 71.833 -49 124.5s16.333 94.334 49 125.001s77 46 133 46s100.167 -15.333 132.5 -46s48.5 -72.334 48.5 -125.001s-16.167 -94.167 -48.5 -124.5s-76.5 -45.5 -132.5 -45.5z" />
    <glyph glyph-name="at" unicode="@" horiz-adv-x="1899" 
d="M940 837c-52.667 0 -94 -20.1709 -124 -60.5039s-45 -96.166 -45 -167.499s14.833 -127.166 44.5 -167.499s70.834 -60.5 123.501 -60.5c53.333 0 95.666 20.333 126.999 61s47 96.334 47 167.001s-15.5 126.334 -46.5 167.001s-73.167 61 -126.5 61zM972 1450
c158 0 298.167 -31.166 420.5 -93.499s217.333 -149.833 285 -262.5s101.5 -241.667 101.5 -387c0 -159.333 -35.333 -285.333 -106 -378s-166.334 -139 -287.001 -139c-62.667 0 -115.167 14 -157.5 42s-69.166 66 -80.499 114h-18c-42.667 -102 -122.667 -153 -240 -153
c-104 0 -187.667 38.667 -251 116s-95 179.333 -95 306c0 121.333 31 219.666 93 294.999s143 113 243 113c53.333 0 100.666 -12.333 141.999 -37s72 -59.334 92 -104.001h18v119h202v-530c0 -35.333 8.33301 -62.833 25 -82.5s40.334 -29.5 71.001 -29.5
c50.667 0 91 29.833 121 89.5s45 140.167 45 241.5c0 180.667 -57.5 325.5 -172.5 434.5s-267.5 163.5 -457.5 163.5c-193.333 0 -351 -63 -473 -189s-183 -288.667 -183 -488c0 -202.667 62.5 -363.667 187.5 -483s293.833 -179 506.5 -179c120 0 210.667 11 272 33v-163
c-81.333 -24 -177 -36 -287 -36c-172 0 -323.167 34.333 -453.5 103s-231 166 -302 292s-106.5 272 -106.5 438c0 162.667 35.5 307.334 106.5 434.001s170.667 225 299 295s274.833 105 439.5 105z" />
    <glyph glyph-name="A" unicode="A" horiz-adv-x="1500" 
d="M1102 0l-109 344h-507l-111 -344h-303l501 1443h355l501 -1443h-327zM732 1143l-181 -566h378l-179 566h-18z" />
    <glyph glyph-name="B" unicode="B" horiz-adv-x="1420" 
d="M823 0l-647.998 0.00195312v1443h631c139.333 0 248.666 -32 327.999 -96s119 -152 119 -264c0 -76.667 -25 -144.334 -75 -203.001s-112 -93.667 -186 -105v-18c95.333 -7.33301 174.166 -43.333 236.499 -108s93.5 -143.334 93.5 -236.001
c0 -126.667 -44.667 -227.167 -134 -301.5s-211 -111.5 -365 -111.5zM477.002 1212l0.000976562 -367h227c81.333 0 143.666 16 186.999 48s65 77 65 135s-19.833 103.167 -59.5 135.5s-95.5 48.5 -167.5 48.5h-252zM477.003 231.002h269c86.667 0 153 17.833 199 53.5
s69 87.167 69 154.5c0 66 -23.5 116.167 -70.5 150.5s-115.167 51.5 -204.5 51.5h-262v-410z" />
    <glyph glyph-name="C" unicode="C" horiz-adv-x="1518" 
d="M788 -37c-209.333 0 -374.5 67.833 -495.5 203.5s-181.5 320.834 -181.5 555.501s60.5 419.667 181.5 555s286.167 203 495.5 203c170.667 0 314.834 -50.833 432.501 -152.5s182.167 -231.167 193.5 -388.5h-294c-14.667 83.333 -52.167 150 -112.5 200
s-133.5 75 -219.5 75c-113.333 0 -203 -44 -269 -132s-99 -208 -99 -360s33 -272.167 99 -360.5s156 -132.5 270 -132.5c86.667 0 160 23.667 220 71s97.333 110.666 112 189.999h294c-12.667 -156 -76.834 -282.833 -192.501 -380.5s-260.5 -146.5 -434.5 -146.5z" />
    <glyph glyph-name="D" unicode="D" horiz-adv-x="1530" 
d="M175 1444h568c214.667 0 381.167 -62.167 499.5 -186.5s177.5 -299.5 177.5 -525.5c0 -234 -58.833 -414.5 -176.5 -541.5s-284.5 -190.5 -500.5 -190.5h-568v1444zM477 1186l-0.000976562 -927.999h218c134 0 237 40.167 309 120.5s108 196.5 108 348.5
c0 145.333 -36.667 258.166 -110 338.499s-175.666 120.5 -306.999 120.5h-218z" />
    <glyph glyph-name="E" unicode="E" horiz-adv-x="1274" 
d="M1131 258v-258h-956v1443h956v-258h-654v-337h617v-239h-617v-351h654z" />
    <glyph glyph-name="F" unicode="F" horiz-adv-x="1224" 
d="M477 0h-302v1443h945v-258h-643v-376h587v-247h-587v-562z" />
    <glyph glyph-name="G" unicode="G" horiz-adv-x="1557" 
d="M1443 589c0 -192.667 -57.333 -345.165 -172 -457.498s-270.667 -168.5 -468 -168.5c-214.667 0 -383.667 67.667 -507 203s-185 321 -185 557c0 232.667 61.667 417 185 553s290 204 500 204c170.667 0 313.667 -45.333 429 -136s183.666 -211 204.999 -361h-300
c-22.667 73.333 -63 130.166 -121 170.499s-129 60.5 -213 60.5c-116.667 0 -208.5 -43.5 -275.5 -130.5s-100.5 -206.167 -100.5 -357.5c0 -154 34.833 -275.333 104.5 -364s164.167 -133 283.5 -133c98.667 0 179.334 26.667 242.001 80s95.667 123.666 99 210.999l1 26
h-313v227h606v-184z" />
    <glyph glyph-name="H" unicode="H" horiz-adv-x="1604" 
d="M1429 0h-302v603h-650v-603h-302v1443h302v-582h650v582h302v-1443z" />
    <glyph glyph-name="I" unicode="I" horiz-adv-x="652" 
d="M477 0h-302v1443h302v-1443z" />
    <glyph glyph-name="J" unicode="J" horiz-adv-x="1231" 
d="M76 424h292c1.33301 -58 19.5 -104.333 54.5 -139s81.5 -52 139.5 -52c62 0 109.5 18.5 142.5 55.5s49.5 90.833 49.5 161.5v993h302v-995c0 -154.667 -43.167 -274.167 -129.5 -358.5s-206.5 -126.5 -360.5 -126.5c-148.667 0 -267.5 41.667 -356.5 125
s-133.5 195.333 -133.5 336z" />
    <glyph glyph-name="K" unicode="K" horiz-adv-x="1453" 
d="M477 0h-302v1443h302v-643h18l533 643h336l-526 -633l563 -810h-362l-419 604l-143 -169v-435z" />
    <glyph glyph-name="L" unicode="L" horiz-adv-x="1218" 
d="M1119 263v-263h-944v1443h302v-1180h642z" />
    <glyph glyph-name="M" unicode="M" horiz-adv-x="1878" 
d="M1703 0h-280v965h-16l-367 -882h-201l-368 882h-16v-965h-280v1443h356l399 -970h18l400 970h355v-1443z" />
    <glyph glyph-name="N" unicode="N" horiz-adv-x="1573" 
d="M464 0h-289v1443h252l664 -899h18v899h289v-1443h-250l-666 903h-18v-903z" />
    <glyph glyph-name="O" unicode="O" horiz-adv-x="1610" 
d="M806 1480c213.333 0 382.166 -68 506.499 -204s186.5 -320.667 186.5 -554c0 -234 -62.167 -419 -186.5 -555s-293.166 -204 -506.499 -204c-214 0 -383.333 68 -508 204s-187 321 -187 555c0 233.333 62.667 418 188 554s294.333 204 507 204zM806 1215
c-117.333 0 -211 -44.5 -281 -133.5s-105 -208.833 -105 -359.5s34.833 -270.667 104.5 -360s163.5 -134 281.5 -134c117.333 0 210.833 44.667 280.5 134s104.5 209.333 104.5 360s-34.833 270.5 -104.5 359.5s-163.167 133.5 -280.5 133.5z" />
    <glyph glyph-name="P" unicode="P" horiz-adv-x="1380" 
d="M175 1443h602c148.667 0 269.167 -45.833 361.5 -137.5s138.5 -212.167 138.5 -361.5c0 -148 -47.667 -267.667 -143 -359s-219.333 -137 -372 -137h-285v-448h-302v1443zM477 1195l-0.000976562 -501.999h219c87.333 0 154.833 21.5 202.5 64.5s71.5 104.833 71.5 185.5
c0 81.333 -23.667 143.666 -71 186.999s-114.666 65 -201.999 65h-220z" />
    <glyph glyph-name="Q" unicode="Q" horiz-adv-x="1610" 
d="M806 -37c-214 0 -383.335 67.832 -508.002 203.499s-187 320.834 -187 555.501c0 233.333 62.667 418 188 554s294.333 204 507 204s381.334 -68 506.001 -204s187 -320.667 187 -554c0 -129.333 -19.5 -244.5 -58.5 -345.5s-95.167 -182.833 -168.5 -245.5l179 -272
h-292l-100 142c-77.333 -25.333 -161.666 -38 -252.999 -38zM806.998 227.999c32.667 0 67.333 4.33301 104 13l-164 240h274l67 -81c68.667 74 103 181.333 103 322c0 150.667 -35 270.5 -105 359.5s-163.333 133.5 -280 133.5c-117.333 0 -211 -44.5 -281 -133.5
s-105 -208.833 -105 -359.5c0 -152 35 -272.333 105 -361s164 -133 282 -133z" />
    <glyph glyph-name="R" unicode="R" horiz-adv-x="1422" 
d="M477 1199v-444h265c76 0 135.167 19.5 177.5 58.5s63.5 93.167 63.5 162.5c0 68.667 -22 123 -66 163s-103.333 60 -178 60h-262zM477 523v-522.999h-302v1443h606c158.667 0 283.667 -41.333 375 -124s137 -195.667 137 -339c0 -93.333 -23.167 -176.833 -69.5 -250.5
s-110.5 -126.834 -192.5 -159.501l304 -570h-342l-269 523h-247z" />
    <glyph glyph-name="S" unicode="S" horiz-adv-x="1383" 
d="M110 401l291.999 0.000976562c6.66699 -58.667 37.334 -105.334 92.001 -140.001s124.667 -52 210 -52c78.667 0 143 17.167 193 51.5s75 78.833 75 133.5c0 46 -19.333 83.333 -58 112s-102.334 52.334 -191.001 71.001l-188 40c-261.333 54.667 -392 192 -392 412
c0 136 50.333 245.167 151 327.5s234.334 123.5 401.001 123.5c158.667 0 289.167 -40.333 391.5 -121s155.833 -185.334 160.5 -314.001h-284c-7.33301 57.333 -35.333 103.333 -84 138s-109.334 52 -182.001 52c-76 0 -136.833 -16.333 -182.5 -49
s-68.5 -76.334 -68.5 -131.001c0 -44.667 18.5 -80.667 55.5 -108s97.833 -50 182.5 -68l174 -37c144.667 -30.667 250 -78.667 316 -144s99 -154 99 -266c0 -145.333 -52.167 -259.833 -156.5 -343.5s-247.166 -125.5 -428.499 -125.5c-172 0 -310 39.333 -414 118
s-158.667 185.334 -164 320.001z" />
    <glyph glyph-name="T" unicode="T" horiz-adv-x="1352" 
d="M827 0h-302v1185h-433v258h1168v-258h-433v-1185z" />
    <glyph glyph-name="U" unicode="U" horiz-adv-x="1564" 
d="M480 1443v-914c0 -92 26.5 -164.667 79.5 -218s127.167 -80 222.5 -80c96 0 170.5 26.667 223.5 80s79.5 126 79.5 218v914h302v-945c0 -160.667 -54.833 -290 -164.5 -388s-256.5 -147 -440.5 -147c-183.333 0 -329.833 49 -439.5 147s-164.5 227.333 -164.5 388v945
h302z" />
    <glyph glyph-name="V" unicode="V" horiz-adv-x="1477" 
d="M925 0h-365l-488 1443h341l328 -1103h18l322 1103h325z" />
    <glyph glyph-name="W" unicode="W" horiz-adv-x="2067" 
d="M1025 955l-270 -955h-285l-382 1443h314l225 -1017h16l263 1017h255l268 -1017h16l223 1017h312l-383 -1443h-283l-273 955h-16z" />
    <glyph glyph-name="X" unicode="X" horiz-adv-x="1494" 
d="M88 0l461 727l-458 716h355l301 -505h18l304 505h338l-475 -721l468 -722h-344l-310 489h-18l-314 -489h-326z" />
    <glyph glyph-name="Y" unicode="Y" horiz-adv-x="1451" 
d="M877 0h-302v531l-503 912h327l318 -604h18l317 604h327l-502 -912v-531z" />
    <glyph glyph-name="Z" unicode="Z" horiz-adv-x="1384" 
d="M135 0v204l726 963v18h-709v258h1077v-203l-724 -964v-18h744v-258h-1114z" />
    <glyph glyph-name="bracketleft" unicode="[" horiz-adv-x="878" 
d="M252 1524h554v-223h-274v-1388h274v-223h-554v1834z" />
    <glyph glyph-name="backslash" unicode="\" horiz-adv-x="793" 
d="M517 -310l-517 1834h276l517 -1834h-276z" />
    <glyph glyph-name="bracketright" unicode="]" horiz-adv-x="878" 
d="M627 1524v-1834h-554v223h273v1388h-273v223h554z" />
    <glyph glyph-name="asciicircum" unicode="^" horiz-adv-x="1066" 
d="M524 1182l-182 -410h-257l319 636h259l319 -636h-257l-183 410h-18z" />
    <glyph glyph-name="underscore" unicode="_" horiz-adv-x="945" 
d="M947 -334h-949v227h949v-227z" />
    <glyph glyph-name="grave" unicode="`" horiz-adv-x="1098" 
d="M826 1281h-269l-287 353h309z" />
    <glyph glyph-name="a" unicode="a" horiz-adv-x="1208" 
d="M544 202c67.333 0 123.667 19.001 169 57.001s68 85 68 141v81l-223 -14c-124 -8.66699 -186 -53 -186 -133c0 -40.667 15.833 -72.834 47.5 -96.501s73.167 -35.5 124.5 -35.5zM448.001 -16.999c-106.667 0 -193.499 30.333 -260.499 91s-100.5 141 -100.5 241
c0 99.333 36.833 177.5 110.5 234.5s179.167 89.5 316.5 97.5l267 16v90c0 46 -16 81.5 -48 106.5s-78 37.5 -138 37.5c-108 0 -174.333 -34 -199 -102h-268c9.33301 102 57.5 182.833 144.5 242.5s199.833 89.5 338.5 89.5c145.333 0 257.833 -32.667 337.5 -98
s119.5 -157.333 119.5 -276v-753h-282v144h-18c-28.667 -50.667 -71.334 -90.167 -128.001 -118.5s-120.667 -42.5 -192 -42.5z" />
    <glyph glyph-name="b" unicode="b" horiz-adv-x="1334" 
d="M796 -17c-78 0 -146.831 16.667 -206.498 50s-104.167 80 -133.5 140h-18v-173h-282v1524h291v-597h18c28 60.667 71.333 108.167 130 142.5s125.667 51.5 201 51.5c139.333 0 248.666 -50.333 327.999 -151s119 -240 119 -418c0 -176.667 -39.833 -315.667 -119.5 -417
s-188.834 -152 -327.501 -152zM695.002 877c-76.667 0 -137.498 -29.167 -182.498 -87.5s-67.833 -137.833 -68.5 -238.5c0.666992 -100 23.5 -179.167 68.5 -237.5s105.833 -87.5 182.5 -87.5c77.333 0 138.166 29 182.499 87s66.5 137.667 66.5 239
c0 100.667 -22.333 180 -67 238s-105.334 87 -182.001 87z" />
    <glyph glyph-name="c" unicode="c" horiz-adv-x="1203" 
d="M1122 714h-272c-10 54 -33.833 96.5 -71.5 127.5s-86.834 46.5 -147.501 46.5c-78.667 0 -139.167 -28.667 -181.5 -86s-63.5 -140 -63.5 -248c0 -109.333 21.167 -193.166 63.5 -251.499s102.833 -87.5 181.5 -87.5c60 0 108.833 14.333 146.5 43s61.834 70 72.501 124
h272c-12 -124.667 -61.333 -223.5 -148 -296.5s-201 -109.5 -343 -109.5c-172 0 -304.833 50.167 -398.5 150.5s-140.5 242.833 -140.5 427.5c0 183.333 46.667 324.666 140 423.999s226.333 149 399 149c144 0 258.833 -37 344.5 -111s134.5 -174.667 146.5 -302z" />
    <glyph glyph-name="d" unicode="d" horiz-adv-x="1334" 
d="M541 -17c-138.667 0 -248.168 51 -328.501 153s-120.5 241 -120.5 417c0 175.333 40.167 313.833 120.5 415.5s189.833 152.5 328.5 152.5c74.667 0 141 -17.167 199 -51.5s101.333 -81.833 130 -142.5h17v597h291v-1524h-282v173h-18
c-29.333 -59.333 -73.666 -105.833 -132.999 -139.5s-127.333 -50.5 -204 -50.5zM639.999 877c-77.333 0 -138.167 -28.833 -182.5 -86.5s-66.5 -137.167 -66.5 -238.5c0 -102 22 -181.833 66 -239.5s105 -86.5 183 -86.5s139.167 28.833 183.5 86.5
s66.5 137.167 66.5 238.5c0 100.667 -22.333 180.167 -67 238.5s-105.667 87.5 -183 87.5z" />
    <glyph glyph-name="e" unicode="e" horiz-adv-x="1231" 
d="M623 904c-67.333 0 -122.833 -21.667 -166.5 -65s-68.167 -100.666 -73.5 -171.999h470c-3.33301 73.333 -25.5 131.166 -66.5 173.499s-95.5 63.5 -163.5 63.5zM859 314h271.001c-22 -104.667 -77.833 -187.167 -167.5 -247.5s-201.834 -90.5 -336.501 -90.5
c-168 0 -299 50.167 -393 150.5s-141 240.166 -141 419.499s47.333 321 142 425s224 156 388 156c162.667 0 289.5 -49 380.5 -147s136.5 -234.667 136.5 -410v-89h-757v-15c2 -82 25.5 -146.833 70.5 -194.5s105.5 -71.5 181.5 -71.5c57.333 0 105.333 9.83301 144 29.5
s65.667 47.834 81 84.501z" />
    <glyph glyph-name="f" unicode="f" horiz-adv-x="836" 
d="M231 0l0.000976562 863.001h-178v229h178v112c0 111.333 30.167 194.166 90.5 248.499s156.166 81.5 287.499 81.5c56 0 106 -3.66699 150 -11v-206c-32 3.33301 -61 5 -87 5c-56 0 -96 -11.167 -120 -33.5s-36 -57.5 -36 -105.5v-91h234v-229h-228v-863h-291z" />
    <glyph glyph-name="g" unicode="g" horiz-adv-x="1322" 
d="M636 246c78.667 0 140.333 28.167 185 84.5s67 133.166 67 230.499s-22.5 174.333 -67.5 231s-106.5 85 -184.5 85s-138.833 -28.167 -182.5 -84.5s-65.5 -133.166 -65.5 -230.499c0 -98 21.667 -175.167 65 -231.5s104.333 -84.5 183 -84.5zM631.999 -418
c-145.333 0 -263.499 29.501 -354.499 88.501s-141.167 137.167 -150.5 234.5h288c7.33301 -34 30.666 -61 69.999 -81s90.333 -30 153 -30c78 0 138.667 17.167 182 51.5s65 82.5 65 144.5v204h-18c-62.667 -118.667 -173.334 -178 -332.001 -178
c-137.333 0 -246 49.167 -326 147.5s-120 230.833 -120 397.5c0 171.333 40.5 307.5 121.5 408.5s191.167 151.5 330.5 151.5c74.667 0 141.834 -17.333 201.501 -52s104.167 -82.334 133.5 -143.001h18v177h282v-1099c0 -129.333 -49 -232 -147 -308
s-230.333 -114 -397 -114z" />
    <glyph glyph-name="h" unicode="h" horiz-adv-x="1307" 
d="M156 0v1524h286v-602h18c26 63.333 67.833 112.833 125.5 148.5s126.834 53.5 207.501 53.5c119.333 0 212.166 -36 278.499 -108s99.5 -174 99.5 -306v-710h-291v641c0 76 -17.333 133.667 -52 173s-85 59 -151 59c-72 0 -128.333 -21.833 -169 -65.5
s-61 -101.834 -61 -174.501v-633h-291z" />
    <glyph glyph-name="i" unicode="i" horiz-adv-x="587" 
d="M148 0v1103h291v-1103h-291zM294 1257c-52 0 -93.667 13.667 -125 41s-47 62.666 -47 105.999c0 44 15.667 79.5 47 106.5s73 40.5 125 40.5s93.667 -13.5 125 -40.5s47 -62.5 47 -106.5c0 -43.333 -15.833 -78.666 -47.5 -105.999s-73.167 -41 -124.5 -41z" />
    <glyph glyph-name="j" unicode="j" horiz-adv-x="587" 
d="M439 1103v-1137c0 -112.667 -33 -197.834 -99 -255.501s-163 -86.5 -291 -86.5c-36 0 -62 1.33301 -78 4v223c4 -0.666992 16.333 -1 37 -1c50.667 0 86.667 9.66699 108 29s32 51 32 95v1129h291zM294 1257c-52 0 -93.667 13.667 -125 41s-47 62.666 -47 105.999
c0 44 15.667 79.5 47 106.5s73 40.5 125 40.5s93.667 -13.5 125 -40.5s47 -62.5 47 -106.5c0 -43.333 -15.833 -78.666 -47.5 -105.999s-73.167 -41 -124.5 -41z" />
    <glyph glyph-name="k" unicode="k" horiz-adv-x="1232" 
d="M465 672l369 431h331l-420 -473l449 -630h-345l-322 448l-80 -82v-366h-291v1524h291v-852h18z" />
    <glyph glyph-name="l" unicode="l" horiz-adv-x="603" 
d="M156 0v1524h291v-1524h-291z" />
    <glyph glyph-name="m" unicode="m" horiz-adv-x="1899" 
d="M146 0l0.000976562 1103h282v-180h18c22.667 63.333 61.167 113.166 115.5 149.499s117.5 54.5 189.5 54.5c76.667 0 141.167 -17.833 193.5 -53.5s89.5 -85.834 111.5 -150.501h18c26 62 68.667 111.5 128 148.5s127.333 55.5 204 55.5c110 0 197 -33.333 261 -100
s96 -156.667 96 -270v-757h-291v680c0 130.667 -61.333 196 -184 196c-58.667 0 -105.667 -18.667 -141 -56s-53 -85.666 -53 -144.999v-675h-280v692c0 58 -16 103.167 -48 135.5s-76.667 48.5 -134 48.5c-56.667 0 -103.334 -20 -140.001 -60s-55 -90.667 -55 -152v-664
h-291z" />
    <glyph glyph-name="n" unicode="n" horiz-adv-x="1285" 
d="M146 0v1103h282v-177h18c26 63.333 66.833 112.666 122.5 147.999s123.5 53 203.5 53c122 0 215.333 -35.833 280 -107.5s97 -173.834 97 -306.501v-713h-291v644c0 154.667 -67.667 232 -203 232c-67.333 0 -120.5 -21.833 -159.5 -65.5s-58.5 -101.834 -58.5 -174.501
v-636h-291z" />
    <glyph glyph-name="o" unicode="o" horiz-adv-x="1269" 
d="M635 -24c-169.333 0 -302.168 51 -398.501 153s-144.5 243 -144.5 423c0 178.667 48.5 319.167 145.5 421.5s229.5 153.5 397.5 153.5s300.5 -51.167 397.5 -153.5s145.5 -242.833 145.5 -421.5c0 -180 -48.167 -321 -144.5 -423s-229.166 -153 -398.499 -153z
M634.998 214c77.333 0 137.333 29.5 180 88.5s64 142.167 64 249.5c0 106 -21.5 188.667 -64.5 248s-102.833 89 -179.5 89c-77.333 0 -137.333 -29.667 -180 -89s-64 -142 -64 -248c0 -107.333 21.167 -190.5 63.5 -249.5s102.5 -88.5 180.5 -88.5z" />
    <glyph glyph-name="p" unicode="p" horiz-adv-x="1324" 
d="M783 1121c140 0 250 -50.334 330 -151.001s120 -240 120 -418c0 -177.333 -39.667 -316.5 -119 -417.5s-188 -151.5 -326 -151.5c-78.667 0 -147 16.333 -205 49s-100.667 78.334 -128 137.001h-18v-535h-291v1469h282v-181h18c30 62 74.667 110.667 134 146
s127 53 203 53zM684 225.999c78.667 0 139.999 28.833 183.999 86.5s66 137.5 66 239.5c0 101.333 -22.167 180.833 -66.5 238.5s-105.166 86.5 -182.499 86.5s-138.5 -29.167 -183.5 -87.5s-67.5 -137.833 -67.5 -238.5s22.333 -180 67 -238s105.667 -87 183 -87z" />
    <glyph glyph-name="q" unicode="q" horiz-adv-x="1324" 
d="M543 1121c74 0 140.833 -17.835 200.5 -53.502s104.167 -84.167 133.5 -145.5h18v181h283v-1469h-292v535h-18c-30 -59.333 -73.333 -105.166 -130 -137.499s-123.667 -48.5 -201 -48.5c-138 0 -246.667 50.833 -326 152.5s-119 240.834 -119 417.501
c0 175.333 40.5 313.833 121.5 415.5s190.833 152.5 329.5 152.5zM638 225.998c78 0 139.5 29 184.5 87s67.5 137.333 67.5 238s-22.5 180.167 -67.5 238.5s-106.167 87.5 -183.5 87.5s-138 -28.833 -182 -86.5s-66 -137.167 -66 -238.5c0 -102 21.833 -181.833 65.5 -239.5
s104.167 -86.5 181.5 -86.5z" />
    <glyph glyph-name="r" unicode="r" horiz-adv-x="891" 
d="M146 0l0.000976562 1103h282v-176h18c14.667 56 48.167 102.333 100.5 139s113.166 55 182.499 55c50 0 88 -4.66699 114 -14v-265c-30.667 12 -76.667 18 -138 18c-80.667 0 -145.5 -22.333 -194.5 -67s-73.5 -105.334 -73.5 -182.001v-611h-291z" />
    <glyph glyph-name="s" unicode="s" horiz-adv-x="1160" 
d="M121 779c0 104.667 42.166 188.836 126.499 252.503s195.166 95.5 332.499 95.5c140 0 249.833 -28.333 329.5 -85s123.5 -137.667 131.5 -243h-269c-7.33301 36 -27.5 64.167 -60.5 84.5s-76.167 30.5 -129.5 30.5c-52.667 0 -96 -10.833 -130 -32.5
s-51 -49.834 -51 -84.501c0 -26.667 12 -48.834 36 -66.501s61.667 -32.167 113 -43.5l207 -45c107.333 -23.333 185.833 -59 235.5 -107s74.5 -113 74.5 -195c0 -109.333 -44.667 -197.333 -134 -264s-206.666 -100 -351.999 -100s-260.333 28.667 -345 86
s-132 139 -142 245h284c23.333 -78.667 93 -118 209 -118c56.667 0 102.667 10.833 138 32.5s53 50.167 53 85.5c0 27.333 -11 49.5 -33 66.5s-57.333 30.833 -106 41.5l-200 45c-107.333 23.333 -187.166 61.166 -239.499 113.499s-78.5 120.833 -78.5 205.5z" />
    <glyph glyph-name="t" unicode="t" horiz-adv-x="845" 
d="M229 1365h291v-273h229v-229h-229v-496c0 -48 11.5 -83.333 34.5 -106s59.167 -34 108.5 -34c32.667 0 61.334 1.33301 86.001 4v-222c-44.667 -8.66699 -93.334 -13 -146.001 -13c-134 0 -229.833 23.333 -287.5 70s-86.5 124 -86.5 232v565h-172v229h172v273z" />
    <glyph glyph-name="u" unicode="u" horiz-adv-x="1290" 
d="M1144 1103v-1103h-282v177h-18c-54.667 -134 -162 -201 -322 -201c-119.333 0 -213.5 36.167 -282.5 108.5s-103.5 172.166 -103.5 299.499v719h291v-644c0 -153.333 67.667 -230 203 -230c71.333 0 126.333 21 165 63s58 100.333 58 175v636h291z" />
    <glyph glyph-name="v" unicode="v" horiz-adv-x="1194" 
d="M1143 1103l-381 -1103h-328l-383 1103h313l228 -822h18l226 822h307z" />
    <glyph glyph-name="w" unicode="w" horiz-adv-x="1735" 
d="M1674 1103l-293 -1103h-310l-197 761h-18l-195 -761h-306l-294 1103h295l164 -791h18l193 791h278l194 -791h18l164 791h289z" />
    <glyph glyph-name="x" unicode="x" horiz-adv-x="1190" 
d="M598 360h-18l-205 -360h-309l346 545l-348 558h334l195 -362h18l195 362h318l-346 -545l349 -558h-324z" />
    <glyph glyph-name="y" unicode="y" horiz-adv-x="1223" 
d="M283 -401c-62 0 -98.998 0.999023 -110.998 2.99902v234c6.66699 -1.33301 28.667 -2 66 -2c55.333 0 98.666 9.5 129.999 28.5s53 49.167 65 90.5l10 40l-387 1110h321l232 -836h18l232 836h308l-380 -1120c-46.667 -141.333 -107.834 -240.666 -183.501 -297.999
s-182.5 -86 -320.5 -86z" />
    <glyph glyph-name="z" unicode="z" horiz-adv-x="1160" 
d="M121 0v172l558 681v18h-550v232h898v-192l-526 -661v-18h539v-232h-919z" />
    <glyph glyph-name="braceleft" unicode="{" horiz-adv-x="878" 
d="M326 593c85.333 -9.33301 150.333 -35.333 195 -78s67 -100.334 67 -173.001v-242c0 -69.333 13.167 -118.5 39.5 -147.5s71.166 -43.5 134.499 -43.5h44v-219h-74c-148.667 0 -256.334 30.167 -323.001 90.5s-100 157.166 -100 290.499v192
c0 72.667 -17.833 124.334 -53.5 155.001s-96.5 46.667 -182.5 48v287c85.333 0.666992 146 16.334 182 47.001s54 82.667 54 156v192c0 132 33.333 227.667 100 287s174.334 89 323.001 89h74v-220h-44c-63.333 0 -108.166 -14.5 -134.499 -43.5
s-39.5 -78.167 -39.5 -147.5v-237c0 -72 -22.333 -129.333 -67 -172s-109.667 -68.667 -195 -78v-33z" />
    <glyph glyph-name="bar" unicode="|" horiz-adv-x="793" 
d="M533 -310h-273v1834h273v-1834z" />
    <glyph glyph-name="braceright" unicode="}" horiz-adv-x="878" 
d="M553 593v33c-85.333 9.33301 -150.333 35.333 -195 78s-67 100 -67 172v237c0 69.333 -13.167 118.5 -39.5 147.5s-71.166 43.5 -134.499 43.5h-44v220h74c148.667 0 256.167 -29.667 322.5 -89s99.5 -155 99.5 -287v-192c0 -73.333 18 -125.333 54 -156
s97 -46.334 183 -47.001v-287c-86 -1.33301 -147 -17.333 -183 -48s-54 -82.334 -54 -155.001v-192c0 -133.333 -33.333 -230.166 -100 -290.499s-174 -90.5 -322 -90.5h-74v219h44c63.333 0 108.166 14.5 134.499 43.5s39.5 78.167 39.5 147.5v242
c0 72.667 22.333 130.334 67 173.001s109.667 68.667 195 78z" />
    <glyph glyph-name="asciitilde" unicode="~" horiz-adv-x="1225" 
d="M566 622c-31.333 30.667 -56.8291 51.832 -76.4961 63.499s-39.834 17.5 -60.501 17.5c-76.667 0 -116.334 -59.333 -119.001 -178h-228c-1.33301 288 105.667 432 321 432c45.333 0 87.666 -10 126.999 -30s83.333 -53.667 132 -101
c29.333 -28.667 54.166 -49 74.499 -61s40.5 -18 60.5 -18c75.333 0 115 59.333 119 178h227c0.666992 -146 -24.833 -254.5 -76.5 -325.5s-131.5 -106.5 -239.5 -106.5c-46.667 0 -90 9.83301 -130 29.5s-83.667 52.834 -131 99.501z" />
    <glyph glyph-name="nonbreakingspace" unicode="&#xa0;" horiz-adv-x="528" 
 />
    <glyph glyph-name="exclamdown" unicode="&#xa1;" horiz-adv-x="730" 
d="M205 -322l26 969h267l27 -969h-320zM365 811c-56 0 -100.333 15.3311 -133 45.998s-49 72.334 -49 125.001s16.333 94.167 49 124.5s77 45.5 133 45.5c56.667 0 101.167 -15.167 133.5 -45.5s48.5 -71.833 48.5 -124.5c0 -53.333 -16.167 -95.166 -48.5 -125.499
s-76.833 -45.5 -133.5 -45.5z" />
    <glyph glyph-name="cent" unicode="&#xa2;" horiz-adv-x="1415" 
d="M1253 528c-10.667 -106.667 -53.166 -194.831 -127.499 -264.498s-169.5 -113.5 -285.5 -131.5v-184h-242v188c-133.333 26 -240 88.833 -320 188.5s-120 224.834 -120 375.501c0 149.333 40.167 273.666 120.5 372.999s186.833 161.666 319.5 186.999v189h242v-185
c114 -19.333 208.667 -65 284 -137s118.333 -161 129 -267h-272c-14.667 53.333 -44.334 95.666 -89.001 126.999s-97.667 47 -159 47c-81.333 0 -148.5 -30 -201.5 -90s-79.5 -141.333 -79.5 -244c0 -104 26.5 -186.333 79.5 -247s119.833 -91 200.5 -91
c66.667 0 121.667 14.667 165 44s71.333 70 84 122h272z" />
    <glyph glyph-name="sterling" unicode="&#xa3;" horiz-adv-x="1415" 
d="M551 257l714.001 0.00195312v-257h-1124v240c89.333 12.667 162.166 49 218.499 109s84.5 131.667 84.5 215c0 23.333 -2 46 -6 68h-293v213h224c-39.333 98.667 -59 179.667 -59 243c0 124 48.833 220.333 146.5 289s234.834 103 411.501 103
c60 0 121.333 -4.83301 184 -14.5s111.334 -21.5 146.001 -35.5v-244c-32.667 14.667 -76.334 26.834 -131.001 36.501s-108.334 14.5 -161.001 14.5c-92.667 0 -164.667 -17.333 -216 -52s-77 -83.334 -77 -146.001c0 -48 14.667 -112.667 44 -194h415v-213h-348
c2 -16 3 -32.333 3 -49c0 -66.667 -16.5 -128.334 -49.5 -185.001s-75.167 -97.334 -126.5 -122.001v-19z" />
    </font>
</defs>
</svg>
